<?xml version="1.0" standalone="no"?>
<!DOCTYPE svg PUBLIC "-//W3C//DTD SVG 1.1//EN" "http://www.w3.org/Graphics/SVG/1.1/DTD/svg11.dtd" >
<svg xmlns="http://www.w3.org/2000/svg" xmlns:xlink="http://www.w3.org/1999/xlink" version="1.1">
<metadata>
Created by FontForge 20161013 at Sat Apr  9 21:36:29 2011
 By ,,,
(c) 2011, Copyright by Lineto. All rights reserved.
</metadata>
<defs>
<font id="BrownPro-Bold" horiz-adv-x="590" >
  <font-face 
    font-family="BrownPro"
    font-weight="700"
    font-stretch="normal"
    units-per-em="1000"
    panose-1="2 1 8 4 1 1 1 1 1 2"
    ascent="750"
    descent="-250"
    x-height="485"
    cap-height="700"
    bbox="-105 -250 1405 1160"
    underline-thickness="80"
    underline-position="-260"
    unicode-range="U+000D-FB04"
  />
<missing-glyph horiz-adv-x="570" 
d="M75 0v700h420v-700h-420zM195 585v-470h180v470h-180z" />
    <glyph glyph-name="f_f_l" unicode="ffl" horiz-adv-x="1090" 
d="M795 711l-20 -111q-18 5 -39 5q-49 0 -73 -28q-18 -23 -18 -77v-15h240v225h130v-710h-130v375h-240v-375h-130v375h-240v-375h-130v375h-125v110h125v20q0 108 52 158q59 57 151 57q42 0 77 -9l-20 -111q-18 5 -39 5q-49 0 -73 -28q-18 -23 -18 -77v-15h240v20
q0 108 52 158q59 57 151 57q42 0 77 -9z" />
    <glyph glyph-name="f_f" unicode="ff" horiz-adv-x="830" 
d="M795 711l-20 -111q-18 5 -39 5q-49 0 -73 -28q-18 -23 -18 -77v-15h150v-110h-150v-375h-130v375h-240v-375h-130v375h-125v110h125v20q0 108 52 158q59 57 151 57q42 0 77 -9l-20 -111q-18 5 -39 5q-49 0 -73 -28q-18 -23 -18 -77v-15h240v20q0 108 52 158q59 57 151 57
q42 0 77 -9z" />
    <glyph glyph-name="f_f_i" unicode="ffi" horiz-adv-x="1090" 
d="M795 711l-20 -111q-18 5 -39 5q-49 0 -73 -28q-18 -23 -18 -77v-15h370v-485h-130v375h-240v-375h-130v375h-240v-375h-130v375h-125v110h125v20q0 108 52 158q59 57 151 57q42 0 77 -9l-20 -111q-18 5 -39 5q-49 0 -73 -28q-18 -23 -18 -77v-15h240v20q0 108 52 158
q59 57 151 57q42 0 77 -9zM865 657q0 35 25 59t60 24t60 -24t25 -59t-25 -59t-60 -24t-60 24t-25 59z" />
    <glyph glyph-name="f_i" unicode="fi" horiz-adv-x="720" 
d="M425 711l-20 -111q-18 5 -39 5q-49 0 -73 -28q-18 -23 -18 -77v-15h370v-485h-130v375h-240v-375h-130v375h-125v110h125v20q0 108 52 158q59 57 151 57q42 0 77 -9zM495 657q0 35 25 59t60 24t60 -24t25 -59t-25 -59t-60 -24t-60 24t-25 59z" />
    <glyph glyph-name="f_l" unicode="fl" horiz-adv-x="720" 
d="M425 711l-20 -111q-18 5 -39 5q-49 0 -73 -28q-18 -23 -18 -77v-15h240v225h130v-710h-130v375h-240v-375h-130v375h-125v110h125v20q0 108 52 158q59 57 151 57q42 0 77 -9z" />
    <glyph glyph-name=".notdef" horiz-adv-x="570" 
d="M75 0v700h420v-700h-420zM195 585v-470h180v470h-180z" />
    <glyph glyph-name=".null" horiz-adv-x="0" 
 />
    <glyph glyph-name=".null" horiz-adv-x="0" 
 />
    <glyph glyph-name="uni000D" unicode="&#xd;" horiz-adv-x="270" 
 />
    <glyph glyph-name="space" unicode=" " horiz-adv-x="270" 
 />
    <glyph glyph-name="exclam" unicode="!" horiz-adv-x="375" 
d="M252 485l-20 -255h-90l-20 255v215h130v-215zM100 77q0 37 25 62.5t62 25.5t62.5 -25.5t25.5 -62.5t-25.5 -62t-62.5 -25t-62 25t-25 62z" />
    <glyph glyph-name="quotedbl" unicode="&#x22;" horiz-adv-x="480" 
d="M200 700l-20 -255h-90l-20 255h130zM410 700l-20 -255h-90l-20 255h130z" />
    <glyph glyph-name="numbersign" unicode="#" horiz-adv-x="733" 
d="M318 405l-30 -110h126l30 110h-126zM94 515h140l49 185h114l-49 -185h126l49 185h114l-49 -185h110v-110h-139l-31 -110h110l4 -110h-143l-49 -185h-114l49 185h-126l-49 -185h-114l49 185h-110v110h139l30 110h-110v110z" />
    <glyph glyph-name="dollar" unicode="$" horiz-adv-x="535" 
d="M10 95l88 92q70 -77 165 -77q45 0 73.5 25t28.5 63q0 40 -32 64.5t-97.5 49.5t-94.5 42q-99 58 -99 159q0 70 44 119t112 68v115h120v-108q85 -9 158 -63l-70 -100q-50 46 -121 46q-43 0 -75.5 -19t-32.5 -57q0 -30 33.5 -52.5t80.5 -40t94.5 -40.5t81 -69t33.5 -112
q0 -77 -52 -132.5t-130 -71.5v-111h-120v112q-103 19 -188 98z" />
    <glyph glyph-name="percent" unicode="%" horiz-adv-x="965" 
d="M310 525q0 32 -19.5 53.5t-50.5 21.5t-50.5 -21.5t-19.5 -53.5t19.5 -53.5t50.5 -21.5t50.5 21.5t19.5 53.5zM50 525q0 77 55 131t135 54t135 -54t55 -131t-55 -131t-135 -54t-135 54t-55 131zM795 175q0 32 -19.5 53.5t-50.5 21.5t-50.5 -21.5t-19.5 -53.5t19.5 -53.5
t50.5 -21.5t50.5 21.5t19.5 53.5zM535 175q0 77 55 131t135 54t135 -54t55 -131t-55 -131t-135 -54t-135 54t-55 131zM335 0h-111l409 700h111z" />
    <glyph glyph-name="ampersand" unicode="&#x26;" horiz-adv-x="660" 
d="M466 422l121 29q21 -72 21 -140q0 -106 -43 -179l115 -132h-162l-37 42q-78 -52 -194 -52q-105 0 -183.5 64t-78.5 165q0 121 125 205q-55 73 -55 134q0 64 50 108t118 44q73 0 120.5 -46.5t47.5 -117.5q0 -84 -92 -155l134 -154q10 37 10 75q0 51 -17 110zM155 219
q0 -45 38 -77t100 -32q61 0 105 27l-167 193q-76 -42 -76 -111zM301 547q0 18 -10.5 30.5t-27.5 12.5q-16 0 -27 -12.5t-11 -30.5q0 -28 34 -66q42 37 42 66z" />
    <glyph glyph-name="quotesingle" unicode="'" horiz-adv-x="270" 
d="M200 700l-20 -255h-90l-20 255h130z" />
    <glyph glyph-name="parenleft" unicode="(" horiz-adv-x="455" 
d="M260 250q0 -221 119 -392l-97 -68q-142 203 -142 460t142 460l97 -68q-119 -171 -119 -392z" />
    <glyph glyph-name="parenright" unicode=")" horiz-adv-x="455" 
d="M195 250q0 221 -119 392l97 68q142 -203 142 -460t-142 -460l-97 68q119 171 119 392z" />
    <glyph glyph-name="asterisk" unicode="*" horiz-adv-x="516" 
d="M173 270l-88 64l85 117l-138 45l34 103l137 -44v145h110v-145l137 45l34 -104l-138 -45l85 -117l-88 -64l-85 117z" />
    <glyph glyph-name="plus" unicode="+" horiz-adv-x="550" 
d="M45 335h175v175h110v-175h175v-110h-175v-175h-110v175h-175v110z" />
    <glyph glyph-name="comma" unicode="," horiz-adv-x="375" 
d="M125 155h140l-120 -295h-95z" />
    <glyph glyph-name="hyphen" unicode="-" horiz-adv-x="470" 
d="M70 315h330v-110h-330v110z" />
    <glyph glyph-name="period" unicode="." horiz-adv-x="375" 
d="M110 77q0 37 25 62.5t62 25.5t62.5 -25.5t25.5 -62.5t-25.5 -62t-62.5 -25t-62 25t-25 62z" />
    <glyph glyph-name="slash" unicode="/" horiz-adv-x="455" 
d="M125 0h-120l325 700h120z" />
    <glyph glyph-name="zero" unicode="0" horiz-adv-x="600" 
d="M410 350q0 108 -26.5 174t-83.5 66t-83.5 -66t-26.5 -174t26.5 -174t83.5 -66t83.5 66t26.5 174zM55 350q0 77 13.5 140.5t41.5 113.5t76.5 78t113.5 28t113.5 -28t76.5 -78t41.5 -113.5t13.5 -140.5t-13.5 -140.5t-41.5 -113.5t-76.5 -78t-113.5 -28t-113.5 28t-76.5 78
t-41.5 113.5t-13.5 140.5z" />
    <glyph glyph-name="one" unicode="1" horiz-adv-x="425" 
d="M55 472v128l170 100h95v-700h-135v544z" />
    <glyph glyph-name="two" unicode="2" horiz-adv-x="545" 
d="M169 511l-124 37q23 72 83.5 117t137.5 45q92 0 158 -61.5t66 -154.5q0 -98 -90 -201l-149 -173h244v-120h-455v80l246 279q69 78 69 137q0 38 -26 66t-65 28q-34 0 -59 -21.5t-36 -57.5z" />
    <glyph glyph-name="three" unicode="3" horiz-adv-x="573" 
d="M25 99l97 81q50 -70 130 -70q52 0 91.5 36.5t39.5 90.5q0 55 -39.5 91.5t-98.5 36.5q-44 0 -84 -20v80l131 155h-234v120h425v-80l-127 -156q74 -28 118 -88.5t44 -138.5q0 -109 -75 -178t-186 -69q-135 0 -232 109z" />
    <glyph glyph-name="four" unicode="4" horiz-adv-x="615" 
d="M385 700h95v-420h115v-120h-115v-160h-135v160h-325v80zM214 280h131v164z" />
    <glyph glyph-name="five" unicode="5" horiz-adv-x="565" 
d="M40 80l92 86q52 -56 120 -56q49 0 84 32q39 36 39 90q0 58 -43 95q-32 28 -85 28q-57 0 -103 -38l-84 12l45 371h370v-120h-260l-11 -110q23 5 54 5q98 0 163 -53q41 -33 65 -83.5t24 -106.5q0 -103 -75.5 -172.5t-182.5 -69.5q-122 0 -212 90z" />
    <glyph glyph-name="six" unicode="6" 
d="M279 700h149l-132 -223h9q101 0 173 -69t72 -172q0 -102 -73.5 -174t-175.5 -72q-103 0 -179.5 66.5t-76.5 172.5q0 77 69 193zM217 340q-42 -57 -42 -111q0 -49 36.5 -84t87.5 -35t84.5 35.5t33.5 86.5q0 52 -35 88.5t-90 36.5q-38 0 -75 -17z" />
    <glyph glyph-name="seven" unicode="7" horiz-adv-x="535" 
d="M45 580v120h460v-80l-301 -620h-143l283 580h-299z" />
    <glyph glyph-name="eight" unicode="8" horiz-adv-x="600" 
d="M300 445q31 0 50.5 20.5t19.5 51.5t-19.5 52t-50.5 21t-50.5 -21t-19.5 -52t19.5 -51.5t50.5 -20.5zM300 110q49 0 82 31t33 76t-33 76.5t-82 31.5t-82 -31.5t-33 -76.5t33 -76t82 -31zM300 -10q-105 0 -177.5 66t-72.5 161q0 111 101 177q-56 50 -56 123q0 81 58.5 137
t146.5 56t146.5 -56t58.5 -137q0 -73 -56 -123q101 -66 101 -177q0 -95 -72.5 -161t-177.5 -66z" />
    <glyph glyph-name="nine" unicode="9" 
d="M311 0h-149l132 223h-9q-101 0 -173 69t-72 172q0 102 73.5 174t175.5 72q103 0 179.5 -66.5t76.5 -172.5q0 -77 -69 -193zM373 360q42 57 42 111q0 49 -36.5 84t-87.5 35t-84.5 -35.5t-33.5 -86.5q0 -52 35 -88.5t90 -36.5q38 0 75 17z" />
    <glyph glyph-name="colon" unicode=":" horiz-adv-x="375" 
d="M110 409q0 37 25 61.5t62 24.5t62.5 -24.5t25.5 -61.5q0 -36 -25.5 -60.5t-62.5 -24.5t-62 24t-25 61zM110 75q0 37 25 61.5t62 24.5t62.5 -24.5t25.5 -61.5q0 -36 -25.5 -60.5t-62.5 -24.5t-62 24t-25 61z" />
    <glyph glyph-name="semicolon" unicode=";" horiz-adv-x="375" 
d="M125 155h140l-120 -295h-95zM105 409q0 37 25 61.5t62 24.5t62.5 -24.5t25.5 -61.5q0 -36 -25.5 -60.5t-62.5 -24.5t-62 24t-25 61z" />
    <glyph glyph-name="less" unicode="&#x3c;" horiz-adv-x="550" 
d="M239 280l266 -116v-119l-460 200v70l460 200v-119z" />
    <glyph glyph-name="equal" unicode="=" horiz-adv-x="550" 
d="M45 230h460v-110h-460v110zM45 440h460v-110h-460v110z" />
    <glyph glyph-name="greater" unicode="&#x3e;" horiz-adv-x="550" 
d="M45 164l266 116l-266 116v119l460 -200v-70l-460 -200v119z" />
    <glyph glyph-name="question" unicode="?" horiz-adv-x="500" 
d="M161 75q0 37 25 61.5t62 24.5t62.5 -24.5t25.5 -61.5q0 -36 -25.5 -60.5t-62.5 -24.5t-62 24t-25 61zM186 529l-126 33q14 63 67 105.5t131 42.5q85 0 143.5 -51.5t58.5 -128.5q0 -41 -16.5 -74.5t-40 -55t-47 -39t-40 -34.5t-16.5 -33q0 -19 17 -36l-101 -70
q-46 54 -46 109q0 36 16.5 65.5t40 49.5t47 37.5t40 37.5t16.5 41q0 28 -20 45t-52 17q-31 0 -50.5 -18.5t-21.5 -42.5z" />
    <glyph glyph-name="at" unicode="@" horiz-adv-x="1000" 
d="M382 250q0 -48 32.5 -81.5t82.5 -33.5q60 0 91 38q-2 26 -2 44v112q-32 36 -89 36q-50 0 -82.5 -33.5t-32.5 -81.5zM745 35q-70 0 -118 53q-58 -53 -137 -53q-49 0 -97.5 23t-84.5 74t-36 118q0 96 66 155.5t143 59.5q62 0 109 -31v21h106v-241q0 -39 10 -56
q14 -23 42 -23t45 24.5t22 53t5 62.5q0 131 -94 218t-222 87q-135 0 -229.5 -96t-94.5 -234q0 -137 93.5 -233.5t226.5 -96.5q116 0 198 65l62 -91q-112 -84 -253 -84q-183 0 -310 128.5t-127 311.5t125.5 311.5t307.5 128.5q113 0 210.5 -53t157 -149t59.5 -213
q0 -104 -47 -172t-138 -68z" />
    <glyph glyph-name="A" unicode="A" horiz-adv-x="695" 
d="M141 0h-141l300 700h95l300 -700h-141l-66 155h-281zM347 482l-89 -207h178z" />
    <glyph glyph-name="B" unicode="B" horiz-adv-x="625" 
d="M80 700h238q101 0 157 -49q65 -57 65 -141q0 -33 -13.5 -65.5t-31.5 -51.5q47 -23 76 -72t29 -107q0 -89 -64 -151q-63 -63 -183 -63h-273v700zM215 580v-150h95q52 0 75 25q20 22 20 50t-20 50q-23 25 -75 25h-95zM215 120h135q62 0 90 31q25 27 25 64t-25 64
q-28 31 -90 31h-135v-190z" />
    <glyph glyph-name="C" unicode="C" horiz-adv-x="715" 
d="M398 590q-99 0 -166 -70t-67 -170q0 -102 69 -171t170 -69q123 0 198 97l93 -83q-48 -61 -124.5 -97.5t-169.5 -36.5q-162 0 -266.5 103.5t-104.5 256.5t104 256.5t265 103.5q153 0 256 -100l-87 -92q-72 72 -170 72z" />
    <glyph glyph-name="D" unicode="D" horiz-adv-x="710" 
d="M545 350q0 88 -51 152q-62 78 -179 78h-100v-460h100q117 0 179 78q51 64 51 152zM80 700h220q151 0 241 -66q65 -48 102 -123t37 -161t-37 -161t-102 -123q-90 -66 -241 -66h-220v700z" />
    <glyph glyph-name="E" unicode="E" horiz-adv-x="550" 
d="M500 580h-285v-145h215v-120h-215v-195h295v-120h-430v700h420v-120z" />
    <glyph glyph-name="F" unicode="F" horiz-adv-x="520" 
d="M500 580h-285v-145h215v-120h-215v-315h-135v700h420v-120z" />
    <glyph glyph-name="G" unicode="G" horiz-adv-x="755" 
d="M398 590q-99 0 -166 -70t-67 -170q0 -102 69 -171t170 -69q88 0 156 54v151h-180v120h315v-311q-48 -61 -124.5 -97.5t-169.5 -36.5q-162 0 -266.5 103.5t-104.5 256.5t104 256.5t265 103.5q153 0 256 -100l-87 -92q-72 72 -170 72z" />
    <glyph glyph-name="H" unicode="H" horiz-adv-x="780" 
d="M565 0v315h-350v-315h-135v700h135v-265h350v265h135v-700h-135z" />
    <glyph glyph-name="I" unicode="I" horiz-adv-x="295" 
d="M80 0v700h135v-700h-135z" />
    <glyph glyph-name="J" unicode="J" horiz-adv-x="500" 
d="M425 700v-480q0 -83 -22 -124q-27 -50 -78.5 -78t-112.5 -28q-68 0 -120.5 33t-76.5 90l116 58q24 -61 82 -61q39 0 61 28q16 21 16 67v495h135z" />
    <glyph glyph-name="K" unicode="K" horiz-adv-x="695" 
d="M522 0l-307 344v-344h-135v700h135v-280l265 280h178l-308 -320l345 -380h-173z" />
    <glyph glyph-name="L" unicode="L" horiz-adv-x="535" 
d="M80 0v700h135v-580h295v-120h-430z" />
    <glyph glyph-name="M" unicode="M" horiz-adv-x="860" 
d="M175 700l255 -419l255 419h95v-700h-135v390l-168 -275h-94l-168 275v-390h-135v700h95z" />
    <glyph glyph-name="N" unicode="N" horiz-adv-x="780" 
d="M80 0v700h95l390 -456v456h135v-700h-95l-390 456v-456h-135z" />
    <glyph glyph-name="O" unicode="O" horiz-adv-x="790" 
d="M165 350q0 -100 66 -170t164 -70t164 70t66 170t-66 170t-164 70t-164 -70t-66 -170zM30 350q0 152 102.5 256t262.5 104t262.5 -104t102.5 -256t-102.5 -256t-262.5 -104t-262.5 104t-102.5 256z" />
    <glyph glyph-name="P" unicode="P" horiz-adv-x="600" 
d="M343 285h-128v-285h-135v700h263q122 0 182 -63q55 -57 55 -145t-55 -145q-59 -62 -182 -62zM215 405h122q59 0 85 28q23 25 23 59q0 35 -23 60q-26 28 -85 28h-122v-175z" />
    <glyph glyph-name="Q" unicode="Q" horiz-adv-x="800" 
d="M30 350q0 152 102.5 256t262.5 104t262.5 -104t102.5 -256q0 -127 -74 -223l114 -127h-153l-44 50q-92 -60 -208 -60q-160 0 -262.5 104t-102.5 256zM165 350q0 -100 66 -170t164 -70q68 0 123 36l-152 172l85 74l144 -162q30 55 30 120q0 100 -66 170t-164 70t-164 -70
t-66 -170z" />
    <glyph glyph-name="R" unicode="R" horiz-adv-x="670" 
d="M264 310h-49v-310h-135v700h255q96 0 153 -52q62 -59 62 -143t-62 -143q-30 -28 -70 -41l262 -321h-167zM215 430h112q49 0 68 21q20 22 20 53q0 32 -20 54t-68 22h-112v-150z" />
    <glyph glyph-name="S" unicode="S" horiz-adv-x="535" 
d="M10 95l88 92q70 -77 165 -77q45 0 73.5 25t28.5 63q0 40 -32 64.5t-97.5 49.5t-94.5 42q-99 58 -99 159q0 89 69 143t162 54q114 0 203 -66l-70 -100q-50 46 -121 46q-43 0 -75.5 -19t-32.5 -57q0 -30 33.5 -52.5t80.5 -40t94.5 -40.5t81 -69t33.5 -112q0 -91 -70 -150.5
t-167 -59.5q-138 0 -253 105z" />
    <glyph glyph-name="T" unicode="T" horiz-adv-x="555" 
d="M25 700h505v-120h-185v-580h-135v580h-185v120z" />
    <glyph glyph-name="U" unicode="U" horiz-adv-x="750" 
d="M375 -10q-129 0 -210 72q-90 81 -90 233v405h135v-415q0 -87 46 -130q47 -45 119 -45t119 45q46 43 46 130v415h135v-405q0 -152 -90 -233q-81 -72 -210 -72z" />
    <glyph glyph-name="V" unicode="V" horiz-adv-x="681" 
d="M293 0l-283 700h139l191 -478l192 478h139l-283 -700h-95z" />
    <glyph glyph-name="W" unicode="W" horiz-adv-x="985" 
d="M242 0l-232 700h136l145 -437l154 437h95l154 -437l145 437h136l-232 -700h-95l-156 443l-155 -443h-95z" />
    <glyph glyph-name="X" unicode="X" horiz-adv-x="680" 
d="M635 700l-213 -327l243 -373h-155l-170 266l-170 -266h-155l242 373l-212 327h155l140 -221l140 221h155z" />
    <glyph glyph-name="Y" unicode="Y" horiz-adv-x="625" 
d="M620 700l-240 -383v-317h-135v317l-240 383h154l154 -246l153 246h154z" />
    <glyph glyph-name="Z" unicode="Z" horiz-adv-x="615" 
d="M40 0v80l340 500h-310v120h490v-80l-341 -500h361v-120h-540z" />
    <glyph glyph-name="bracketleft" unicode="[" horiz-adv-x="455" 
d="M140 -200v900h275v-115h-155v-670h155v-115h-275z" />
    <glyph glyph-name="backslash" unicode="\" horiz-adv-x="455" 
d="M5 700h120l325 -700h-120z" />
    <glyph glyph-name="bracketright" unicode="]" horiz-adv-x="455" 
d="M315 700v-900h-275v115h155v670h-155v115h275z" />
    <glyph glyph-name="asciicircum" unicode="^" horiz-adv-x="520" 
d="M30 350l185 350h90l185 -350h-124l-106 201l-106 -201h-124z" />
    <glyph glyph-name="underscore" unicode="_" horiz-adv-x="520" 
d="M15 0h490v-110h-490v110z" />
    <glyph glyph-name="grave" unicode="`" horiz-adv-x="350" 
d="M70 720h140l70 -160h-90z" />
    <glyph glyph-name="a" unicode="a" horiz-adv-x="615" 
d="M410 170v145q-45 60 -120 60q-55 0 -90 -39.5t-35 -93.5q0 -57 36.5 -94.5t91.5 -37.5q75 0 117 60zM540 485v-485h-125v39q-58 -49 -135 -49q-112 0 -183 82q-62 72 -62 170q0 107 69.5 180t168.5 73q82 0 142 -49v39h125z" />
    <glyph glyph-name="b" unicode="b" horiz-adv-x="615" 
d="M205 315v-145q42 -60 117 -60q55 0 91.5 37.5t36.5 94.5q0 54 -35 93.5t-90 39.5q-75 0 -120 -60zM200 0h-125v710h130v-260q57 45 137 45q99 0 168.5 -73t69.5 -180q0 -98 -62 -170q-71 -82 -183 -82q-77 0 -135 49v-39z" />
    <glyph glyph-name="c" unicode="c" horiz-adv-x="540" 
d="M415 174l100 -75q-82 -109 -220 -109q-112 0 -186 73t-74 179t75 179.5t186 73.5q62 0 115.5 -26.5t88.5 -70.5l-92 -81q-44 58 -112 58q-56 0 -93.5 -38.5t-37.5 -94.5q0 -57 37.5 -94.5t96.5 -37.5q37 0 67.5 18.5t48.5 45.5z" />
    <glyph glyph-name="d" unicode="d" horiz-adv-x="615" 
d="M410 170v145q-45 60 -120 60q-55 0 -90 -39.5t-35 -93.5q0 -57 36.5 -94.5t91.5 -37.5q75 0 117 60zM540 0h-125v39q-58 -49 -135 -49q-112 0 -183 82q-62 72 -62 170q0 107 69.5 180t168.5 73q80 0 137 -45v260h130v-710z" />
    <glyph glyph-name="e" unicode="e" horiz-adv-x="535" 
d="M414 151l74 -74q-35 -41 -88.5 -64t-110.5 -23q-110 0 -182 69.5t-72 182.5q0 105 65.5 179t170.5 74q99 0 164 -72.5t65 -175.5q0 -21 -3 -37h-336q5 -51 42 -83t89 -32q70 0 122 56zM167 305h200q-3 34 -30.5 59.5t-65.5 25.5q-39 0 -69 -25.5t-35 -59.5z" />
    <glyph glyph-name="f" unicode="f" horiz-adv-x="460" 
d="M425 711l-20 -111q-18 5 -39 5q-49 0 -73 -28q-18 -23 -18 -77v-15h150v-110h-150v-375h-130v375h-125v110h125v20q0 108 52 158q59 57 151 57q42 0 77 -9z" />
    <glyph glyph-name="g" unicode="g" horiz-adv-x="615" 
d="M540 485v-458q0 -118 -44 -180q-33 -46 -89.5 -71.5t-125.5 -25.5t-132.5 28t-100.5 72l82 85q65 -70 151 -70q66 0 99 39q30 33 30 114v16q-57 -44 -130 -44q-53 0 -102 22t-82 60q-61 71 -61 170q0 107 69.5 180t168.5 73q82 0 142 -49v39h125zM410 170v145
q-45 60 -120 60q-55 0 -90 -39.5t-35 -93.5q0 -57 36.5 -94.5t91.5 -37.5q75 0 117 60z" />
    <glyph glyph-name="h" unicode="h" horiz-adv-x="620" 
d="M205 315v-315h-130v710h130v-260q58 45 132 45q103 0 168 -78q50 -59 50 -170v-247h-130v257q0 62 -29 91q-27 27 -73 27q-37 0 -69.5 -18.5t-48.5 -41.5z" />
    <glyph glyph-name="i" unicode="i" horiz-adv-x="280" 
d="M205 485v-485h-130v485h130zM55 657q0 35 25 59t60 24t60 -24t25 -59t-25 -59t-60 -24t-60 24t-25 59z" />
    <glyph glyph-name="j" unicode="j" horiz-adv-x="320" 
d="M-20 -243l20 118q15 -5 34 -5q41 0 62 22q19 20 19 83v510h130v-510q0 -103 -35 -153q-51 -72 -165 -72q-32 0 -65 7zM95 657q0 35 25 59t60 24t60 -24t25 -59t-25 -59t-60 -24t-60 24t-25 59z" />
    <glyph glyph-name="k" unicode="k" horiz-adv-x="595" 
d="M555 485l-237 -218l267 -267h-175l-205 210v-210h-130v710h130v-382l167 157h183z" />
    <glyph glyph-name="l" unicode="l" horiz-adv-x="280" 
d="M205 710v-710h-130v710h130z" />
    <glyph glyph-name="m" unicode="m" horiz-adv-x="950" 
d="M205 0h-130v485h125v-39q55 49 131 49q100 0 163 -76q72 76 172 76q50 0 95.5 -21t74.5 -57q49 -60 49 -160v-257h-130v262q0 56 -24 83q-27 30 -73 30q-38 0 -69.5 -20t-47.5 -44q4 -32 4 -54v-257h-130v262q0 56 -24 83q-27 30 -73 30q-66 0 -113 -60v-315z" />
    <glyph glyph-name="n" unicode="n" horiz-adv-x="620" 
d="M205 0h-130v485h125v-39q60 49 137 49q103 0 168 -78q50 -59 50 -170v-247h-130v257q0 62 -29 91q-27 27 -73 27q-37 0 -69.5 -18.5t-48.5 -41.5v-315z" />
    <glyph glyph-name="o" unicode="o" horiz-adv-x="586" 
d="M35 242q0 106 74 179.5t184 73.5t184 -73.5t74 -179.5t-74 -179t-184 -73t-184 73t-74 179zM165 242q0 -56 36 -94t92 -38t92 38t36 94t-36 94.5t-92 38.5t-92 -38.5t-36 -94.5z" />
    <glyph glyph-name="p" unicode="p" horiz-adv-x="615" 
d="M75 -240v725h125v-39q60 49 142 49q99 0 168.5 -73t69.5 -180q0 -99 -61 -170q-33 -38 -82 -60t-102 -22q-73 0 -130 44v-274h-130zM205 315v-145q42 -60 117 -60q55 0 91.5 37.5t36.5 94.5q0 54 -35 93.5t-90 39.5q-75 0 -120 -60z" />
    <glyph glyph-name="q" unicode="q" horiz-adv-x="615" 
d="M540 485v-725h-130v274q-57 -44 -130 -44q-53 0 -102 22t-82 60q-61 71 -61 170q0 107 69.5 180t168.5 73q82 0 142 -49v39h125zM410 170v145q-45 60 -120 60q-55 0 -90 -39.5t-35 -93.5q0 -57 36.5 -94.5t91.5 -37.5q75 0 117 60z" />
    <glyph glyph-name="r" unicode="r" horiz-adv-x="410" 
d="M385 491l-15 -121q-15 5 -47 5q-39 0 -71.5 -22t-46.5 -48v-305h-130v485h125v-49q48 59 141 59q16 0 44 -4z" />
    <glyph glyph-name="s" unicode="s" horiz-adv-x="460" 
d="M27 55l63 93q53 -48 133 -48q26 0 44 11.5t18 29.5q0 20 -24 34t-58.5 25t-69.5 25.5t-59 45t-24 73.5q0 67 55.5 109t130.5 42q45 0 92 -14.5t72 -34.5l-61 -94q-46 33 -93 33q-28 0 -47 -10.5t-19 -28.5q0 -17 24 -29t59 -23t69.5 -26.5t58.5 -48t24 -79.5
q0 -67 -56.5 -108.5t-136.5 -41.5q-107 0 -195 65z" />
    <glyph glyph-name="t" unicode="t" horiz-adv-x="495" 
d="M420 110l20 -110q-28 -10 -81 -10q-116 0 -168 70q-36 48 -36 145v170h-135v110h135v135h130v-135h160v-110h-160v-185q0 -42 16 -61q21 -24 66 -24q31 0 53 5z" />
    <glyph glyph-name="u" unicode="u" horiz-adv-x="610" 
d="M405 485h130v-485h-125v39q-55 -49 -131 -49q-102 0 -165 78q-49 60 -49 160v257h130v-262q0 -56 24 -83q27 -30 73 -30q66 0 113 60v315z" />
    <glyph glyph-name="v" unicode="v" horiz-adv-x="556" 
d="M145 485l133 -296l133 296h135l-223 -485h-90l-223 485h135z" />
    <glyph glyph-name="w" unicode="w" horiz-adv-x="852" 
d="M426 282l-122 -282h-90l-204 485h131l118 -283l122 283h90l121 -283l119 283h131l-204 -485h-90z" />
    <glyph glyph-name="x" unicode="x" horiz-adv-x="546" 
d="M177 485l96 -138l96 138h149l-163 -226l186 -259h-154l-114 164l-114 -164h-154l186 259l-163 226h149z" />
    <glyph glyph-name="y" unicode="y" horiz-adv-x="573" 
d="M229 -240h-136l134 289l-217 436h143l142 -291l131 291h137z" />
    <glyph glyph-name="z" unicode="z" horiz-adv-x="530" 
d="M460 485v-80l-235 -295h255v-110h-430v80l232 295h-212v110h390z" />
    <glyph glyph-name="braceleft" unicode="{" horiz-adv-x="455" 
d="M187 250q22 -8 35.5 -17t25.5 -34.5t12 -65.5q0 -27 -5 -76.5t-5 -73.5q0 -68 76 -68h39v-115h-30q-98 0 -151.5 45.5t-53.5 133.5q0 30 5 83.5t5 79.5q0 68 -90 68v80q90 0 90 68q0 26 -5 79.5t-5 83.5q0 88 53.5 133.5t151.5 45.5h30v-115h-39q-76 0 -76 -68
q0 -24 5 -73.5t5 -76.5q0 -40 -12 -65.5t-25.5 -34.5t-35.5 -17z" />
    <glyph glyph-name="bar" unicode="|" horiz-adv-x="240" 
d="M180 700v-900h-120v900h120z" />
    <glyph glyph-name="braceright" unicode="}" horiz-adv-x="455" 
d="M268 250q-22 8 -35.5 17t-25.5 34.5t-12 65.5q0 27 5 76.5t5 73.5q0 68 -76 68h-39v115h30q98 0 151.5 -45.5t53.5 -133.5q0 -30 -5 -83.5t-5 -79.5q0 -68 90 -68v-80q-90 0 -90 -68q0 -26 5 -79.5t5 -83.5q0 -88 -53.5 -133.5t-151.5 -45.5h-30v115h39q76 0 76 68
q0 24 -5 73.5t-5 76.5q0 40 12 65.5t25.5 34.5t35.5 17z" />
    <glyph glyph-name="asciitilde" unicode="~" horiz-adv-x="570" 
d="M127 188l-107 27q14 69 57 115.5t111 46.5q41 0 78 -21t65 -42t47 -21q24 0 41.5 22t23.5 57l107 -27q-14 -69 -57 -115.5t-111 -46.5q-41 0 -78 21t-65 42t-47 21q-24 0 -41.5 -22t-23.5 -57z" />
    <glyph glyph-name="uni00A0" unicode="&#xa0;" horiz-adv-x="270" 
 />
    <glyph glyph-name="exclamdown" unicode="&#xa1;" horiz-adv-x="375" 
d="M232 230l20 -255v-215h-130v215l20 255h90zM100 410q0 37 25 61t62 24t62.5 -24.5t25.5 -60.5q0 -37 -25.5 -61.5t-62.5 -24.5t-62 24.5t-25 61.5z" />
    <glyph glyph-name="cent" unicode="&#xa2;" horiz-adv-x="540" 
d="M165 242q0 -57 37.5 -94.5t96.5 -37.5q37 0 67.5 18.5t48.5 45.5l100 -75q-67 -88 -168 -105v-109h-120v114q-86 20 -139 87.5t-53 155.5t53.5 155t138.5 89v114h120v-110q95 -18 153 -92l-92 -81q-44 58 -112 58q-56 0 -93.5 -38.5t-37.5 -94.5z" />
    <glyph glyph-name="sterling" unicode="&#xa3;" horiz-adv-x="530" 
d="M244 405h135v-110h-97q4 -28 4 -47q0 -69 -40 -128h274v-120h-495v80q62 20 96.5 64.5t34.5 102.5q0 25 -5 48h-111v110h66q-20 48 -20 103q0 84 62.5 143t149.5 59q73 0 124 -36.5t74 -99.5l-113 -44q-10 26 -31.5 43t-49.5 17q-36 0 -61 -23.5t-25 -58.5q0 -38 28 -103
z" />
    <glyph glyph-name="currency" unicode="&#xa4;" horiz-adv-x="610" 
d="M94 351q0 54 26 100l-80 80l85 85l80 -80q46 26 100 26q55 0 101 -26l79 80l85 -85l-79 -80q25 -47 25 -100q0 -54 -25 -101l79 -79l-85 -85l-79 79q-47 -25 -101 -25q-53 0 -100 25l-80 -79l-85 85l80 79q-26 46 -26 101zM224 351q0 -34 23.5 -57.5t57.5 -23.5
t57.5 23.5t23.5 57.5t-23.5 57.5t-57.5 23.5t-57.5 -23.5t-23.5 -57.5z" />
    <glyph glyph-name="yen" unicode="&#xa5;" horiz-adv-x="625" 
d="M52 215v110h188l-32 50h-156v110h87l-134 215h154l154 -246l153 246h154l-135 -215h88v-110h-157l-31 -50h188v-110h-193v-215h-135v215h-193z" />
    <glyph glyph-name="brokenbar" unicode="&#xa6;" horiz-adv-x="280" 
d="M200 190v-390h-120v390h120zM200 700v-390h-120v390h120z" />
    <glyph glyph-name="section" unicode="&#xa7;" horiz-adv-x="573" 
d="M538 215q0 -88 -70 -150q30 -43 30 -98q0 -89 -69 -143t-162 -54q-114 0 -203 66l70 100q50 -46 121 -46q43 0 75.5 19t32.5 57q0 26 -24.5 46t-60.5 31.5t-79 29.5t-79 39t-60.5 60.5t-24.5 92.5q0 89 70 149q-30 41 -30 99q0 89 69 143t162 54q114 0 203 -66l-70 -100
q-50 46 -121 46q-43 0 -75.5 -19t-32.5 -57q0 -26 24.5 -46t60.5 -31.5t79 -29.5t79 -39t60.5 -60.5t24.5 -92.5zM403 213q0 27 -20 47t-43 29t-66.5 23.5t-66.5 24.5q-37 -25 -37 -70q0 -27 19.5 -47t43 -29.5t66.5 -23.5t67 -25q37 26 37 71z" />
    <glyph glyph-name="dieresis" unicode="&#xa8;" horiz-adv-x="510" 
d="M70 642q0 33 23.5 55.5t56.5 22.5t56.5 -22.5t23.5 -55.5t-23.5 -55.5t-56.5 -22.5t-56.5 22.5t-23.5 55.5zM280 642q0 33 23.5 55.5t56.5 22.5t56.5 -22.5t23.5 -55.5t-23.5 -55.5t-56.5 -22.5t-56.5 22.5t-23.5 55.5z" />
    <glyph glyph-name="copyright" unicode="&#xa9;" horiz-adv-x="840" 
d="M70 350q0 145 102.5 247.5t247.5 102.5t247.5 -102.5t102.5 -247.5t-102.5 -247.5t-247.5 -102.5t-247.5 102.5t-102.5 247.5zM140 350q0 -116 82 -198t198 -82t198 82t82 198t-82 198t-198 82t-198 -82t-82 -198zM519 266l51 -61q-22 -23 -59.5 -39t-76.5 -16
q-88 0 -148 57.5t-60 142.5q0 86 58.5 143.5t144.5 57.5q78 0 126 -46l-49 -59q-35 25 -76 25q-49 0 -83 -35.5t-34 -85.5t35 -85t85 -35t86 36z" />
    <glyph glyph-name="ordfeminine" unicode="&#xaa;" horiz-adv-x="416" 
d="M371 704v-308h-89v22q-34 -28 -85 -28q-68 0 -113 52q-39 46 -39 108q0 67 44 113.5t107 46.5q51 0 86 -28v22h89zM281 506v87q-26 37 -70 37q-33 0 -54.5 -23.5t-21.5 -56.5q0 -34 22 -57t55 -23q44 0 69 36z" />
    <glyph glyph-name="guillemotleft" unicode="&#xab;" horiz-adv-x="659" 
d="M196 437h143l-156 -190l156 -190h-143l-126 155v70zM476 437h143l-156 -190l156 -190h-143l-126 155v70z" />
    <glyph glyph-name="logicalnot" unicode="&#xac;" horiz-adv-x="550" 
d="M505 440v-320h-110v210h-350v110h460z" />
    <glyph glyph-name="uni00AD" unicode="&#xad;" horiz-adv-x="470" 
d="M70 315h330v-110h-330v110z" />
    <glyph glyph-name="registered" unicode="&#xae;" horiz-adv-x="840" 
d="M70 350q0 145 102.5 247.5t247.5 102.5t247.5 -102.5t102.5 -247.5t-102.5 -247.5t-247.5 -102.5t-247.5 102.5t-102.5 247.5zM395 321h-23v-162h-87v383h136q63 0 96 -30q38 -33 38 -86q0 -59 -49 -88q-8 -6 -24 -11l115 -168h-95zM372 392h52q27 0 37 13q7 9 7 21
q0 13 -7 22q-12 14 -37 14h-52v-70zM140 350q0 -116 82 -198t198 -82t198 82t82 198t-82 198t-198 82t-198 -82t-82 -198z" />
    <glyph glyph-name="macron" unicode="&#xaf;" horiz-adv-x="460" 
d="M70 690h320v-100h-320v100z" />
    <glyph glyph-name="degree" unicode="&#xb0;" horiz-adv-x="430" 
d="M45 540q0 70 49.5 120t120.5 50t120.5 -50t49.5 -120t-49.5 -120t-120.5 -50t-120.5 50t-49.5 120zM145 540q0 -29 20.5 -49.5t49.5 -20.5t49.5 20.5t20.5 49.5t-20.5 49.5t-49.5 20.5t-49.5 -20.5t-20.5 -49.5z" />
    <glyph glyph-name="plusminus" unicode="&#xb1;" horiz-adv-x="550" 
d="M220 294h-175v110h175v126h110v-126h175v-110h-175v-126h-110v126zM45 140h460v-110h-460v110z" />
    <glyph glyph-name="twosuperior" unicode="&#xb2;" horiz-adv-x="317" 
d="M125 594l-90 26q11 41 45.5 65.5t79.5 24.5q50 0 85 -32t35 -81q0 -47 -42 -99l-59 -73h108v-85h-257v50l131 159q21 27 21 43q0 12 -7 20t-19 8q-22 0 -31 -26z" />
    <glyph glyph-name="threesuperior" unicode="&#xb3;" horiz-adv-x="296" 
d="M78 496v50l58 74h-114v80h230v-50l-60 -85q34 -14 54 -43.5t20 -64.5q0 -55 -42.5 -91t-101.5 -36q-73 0 -122 49l59 60q22 -27 60 -27q20 0 34.5 12.5t14.5 32.5t-15 33.5t-36 13.5q-19 0 -39 -8z" />
    <glyph glyph-name="acute" unicode="&#xb4;" horiz-adv-x="350" 
d="M140 720h140l-120 -160h-90z" />
    <glyph glyph-name="mu" unicode="&#xb5;" horiz-adv-x="620" 
d="M415 485h130v-485h-125v39q-55 -49 -131 -49q-48 0 -84 22v-252h-130v725h130v-262q0 -56 24 -83q27 -30 73 -30q66 0 113 60v315z" />
    <glyph glyph-name="paragraph" unicode="&#xb6;" horiz-adv-x="725" 
d="M240 380v210q-41 -4 -68 -34t-27 -71t27 -71t68 -34zM273 700h407v-110h-100v-790h-120v790h-100v-790h-120v470q-89 0 -152 63t-63 152q0 58 30 108t79 78q49 29 139 29z" />
    <glyph glyph-name="periodcentered" unicode="&#xb7;" horiz-adv-x="375" 
d="M100 242q0 37 25 62.5t62 25.5t62.5 -25.5t25.5 -62.5t-25.5 -62t-62.5 -25t-62 25t-25 62z" />
    <glyph glyph-name="cedilla" unicode="&#xb8;" horiz-adv-x="310" 
d="M80 -150l65 160h95l-30 -160h-130z" />
    <glyph glyph-name="onesuperior" unicode="&#xb9;" horiz-adv-x="260" 
d="M30 541v97l120 62h60v-360h-100v242z" />
    <glyph glyph-name="ordmasculine" unicode="&#xba;" horiz-adv-x="416" 
d="M281 550q0 35 -19.5 57.5t-53.5 22.5t-53.5 -22.5t-19.5 -57.5t19.5 -57.5t53.5 -22.5t53.5 22.5t19.5 57.5zM45 550q0 68 45 114t118 46t118 -46t45 -114t-45 -114t-118 -46t-118 46t-45 114z" />
    <glyph glyph-name="guillemotright" unicode="&#xbb;" horiz-adv-x="659" 
d="M320 437h143l126 -155v-70l-126 -155h-143l156 190zM40 437h143l126 -155v-70l-126 -155h-143l156 190z" />
    <glyph glyph-name="onequarter" unicode="&#xbc;" horiz-adv-x="725" 
d="M211 0h-111l409 700h111zM65 541v97l120 62h60v-360h-100v242zM599 360v-215h66v-75h-66v-70h-85v70h-159v50l184 240h60zM469 145h45v58z" />
    <glyph glyph-name="onehalf" unicode="&#xbd;" horiz-adv-x="727" 
d="M211 0h-111l409 700h111zM65 541v97l120 62h60v-360h-100v242zM535 254l-90 26q11 41 45.5 65.5t79.5 24.5q50 0 85 -32t35 -81q0 -47 -42 -99l-59 -73h108v-85h-257v50l131 159q21 27 21 43q0 12 -7 20t-19 8q-22 0 -31 -26z" />
    <glyph glyph-name="threequarters" unicode="&#xbe;" horiz-adv-x="738" 
d="M78 496v50l58 74h-114v80h230v-50l-60 -85q34 -14 54 -43.5t20 -64.5q0 -55 -42.5 -91t-101.5 -36q-73 0 -122 49l59 60q22 -27 60 -27q20 0 34.5 12.5t14.5 32.5t-15 33.5t-36 13.5q-19 0 -39 -8zM197 0h-111l409 700h111zM585 360v-215h66v-75h-66v-70h-85v70h-159v50
l184 240h60zM455 145h45v58z" />
    <glyph glyph-name="questiondown" unicode="&#xbf;" horiz-adv-x="500" 
d="M339 410q0 -37 -25 -61.5t-62 -24.5t-62.5 24.5t-25.5 61.5q0 36 25.5 60.5t62.5 24.5t62 -24t25 -61zM314 -69l126 -33q-14 -63 -67 -105.5t-131 -42.5q-85 0 -143.5 51.5t-58.5 128.5q0 41 16.5 74.5t40 55t47 39t40 34.5t16.5 33q0 19 -17 36l101 70q46 -54 46 -109
q0 -36 -16.5 -65.5t-40 -49.5t-47 -37.5t-40 -37.5t-16.5 -41q0 -28 20 -45t52 -17q31 0 50.5 18.5t21.5 42.5z" />
    <glyph glyph-name="Agrave" unicode="&#xc0;" horiz-adv-x="695" 
d="M182 920h140l70 -160h-90zM141 0h-141l300 700h95l300 -700h-141l-66 155h-281zM347 482l-89 -207h178z" />
    <glyph glyph-name="Aacute" unicode="&#xc1;" horiz-adv-x="695" 
d="M372 920h140l-120 -160h-90zM141 0h-141l300 700h95l300 -700h-141l-66 155h-281zM347 482l-89 -207h178z" />
    <glyph glyph-name="Acircumflex" unicode="&#xc2;" horiz-adv-x="695" 
d="M277 920h140l100 -160h-90l-80 90l-80 -90h-90zM141 0h-141l300 700h95l300 -700h-141l-66 155h-281zM347 482l-89 -207h178z" />
    <glyph glyph-name="Atilde" unicode="&#xc3;" horiz-adv-x="695" 
d="M141 0h-141l300 700h95l300 -700h-141l-66 155h-281zM347 482l-89 -207h178zM457 920l80 -16q0 -57 -29.5 -95.5t-81.5 -38.5q-32 0 -81 25t-68 25q-35 0 -40 -50l-80 16q0 57 29.5 95.5t81.5 38.5q32 0 81 -25t68 -25q35 0 40 50z" />
    <glyph glyph-name="Adieresis" unicode="&#xc4;" horiz-adv-x="695" 
d="M163 842q0 33 23.5 55.5t56.5 22.5t56.5 -22.5t23.5 -55.5t-23.5 -55.5t-56.5 -22.5t-56.5 22.5t-23.5 55.5zM373 842q0 33 23.5 55.5t56.5 22.5t56.5 -22.5t23.5 -55.5t-23.5 -55.5t-56.5 -22.5t-56.5 22.5t-23.5 55.5zM141 0h-141l300 700h95l300 -700h-141l-66 155
h-281zM347 482l-89 -207h178z" />
    <glyph glyph-name="Aring" unicode="&#xc5;" horiz-adv-x="695" 
d="M237 850q0 46 32 78t78 32t78 -32t32 -78t-32 -78t-78 -32t-78 32t-32 78zM317 850q0 -13 8.5 -21.5t21.5 -8.5t21.5 8.5t8.5 21.5t-8.5 21.5t-21.5 8.5t-21.5 -8.5t-8.5 -21.5zM141 0h-141l300 700h95l300 -700h-141l-66 155h-281zM347 482l-89 -207h178z" />
    <glyph glyph-name="AE" unicode="&#xc6;" horiz-adv-x="960" 
d="M910 580h-285v-145h225v-120h-225v-195h295v-120h-430v155h-256l-93 -155h-151l421 700h499v-120zM306 275h184v306z" />
    <glyph glyph-name="Ccedilla" unicode="&#xc7;" horiz-adv-x="715" 
d="M278 -150l59 145q-137 20 -222 119t-85 236q0 153 104 256.5t265 103.5q153 0 256 -100l-87 -92q-72 72 -170 72q-99 0 -166 -70t-67 -170q0 -102 69 -171t170 -69q123 0 198 97l93 -83q-95 -120 -261 -132l-26 -142h-130z" />
    <glyph glyph-name="Egrave" unicode="&#xc8;" horiz-adv-x="550" 
d="M500 580h-285v-145h215v-120h-215v-195h295v-120h-430v700h420v-120zM137 920h140l70 -160h-90z" />
    <glyph glyph-name="Eacute" unicode="&#xc9;" horiz-adv-x="550" 
d="M500 580h-285v-145h215v-120h-215v-195h295v-120h-430v700h420v-120zM310 920h140l-120 -160h-90z" />
    <glyph glyph-name="Ecircumflex" unicode="&#xca;" horiz-adv-x="550" 
d="M500 580h-285v-145h215v-120h-215v-195h295v-120h-430v700h420v-120zM225 920h140l100 -160h-90l-80 90l-80 -90h-90z" />
    <glyph glyph-name="Edieresis" unicode="&#xcb;" horiz-adv-x="550" 
d="M500 580h-285v-145h215v-120h-215v-195h295v-120h-430v700h420v-120zM106 842q0 33 23.5 55.5t56.5 22.5t56.5 -22.5t23.5 -55.5t-23.5 -55.5t-56.5 -22.5t-56.5 22.5t-23.5 55.5zM316 842q0 33 23.5 55.5t56.5 22.5t56.5 -22.5t23.5 -55.5t-23.5 -55.5t-56.5 -22.5
t-56.5 22.5t-23.5 55.5z" />
    <glyph glyph-name="Igrave" unicode="&#xcc;" horiz-adv-x="295" 
d="M80 0v700h135v-700h-135zM-15 920h140l70 -160h-90z" />
    <glyph glyph-name="Iacute" unicode="&#xcd;" horiz-adv-x="295" 
d="M80 0v700h135v-700h-135zM170 920h140l-120 -160h-90z" />
    <glyph glyph-name="Icircumflex" unicode="&#xce;" horiz-adv-x="295" 
d="M80 0v700h135v-700h-135zM77 920h140l100 -160h-90l-80 90l-80 -90h-90z" />
    <glyph glyph-name="Idieresis" unicode="&#xcf;" horiz-adv-x="295" 
d="M80 0v700h135v-700h-135zM-38 842q0 33 23.5 55.5t56.5 22.5t56.5 -22.5t23.5 -55.5t-23.5 -55.5t-56.5 -22.5t-56.5 22.5t-23.5 55.5zM172 842q0 33 23.5 55.5t56.5 22.5t56.5 -22.5t23.5 -55.5t-23.5 -55.5t-56.5 -22.5t-56.5 22.5t-23.5 55.5z" />
    <glyph glyph-name="Eth" unicode="&#xd0;" horiz-adv-x="730" 
d="M0 315v120h100v265h220q151 0 241 -66q65 -48 102 -123t37 -161t-37 -161t-102 -123q-90 -66 -241 -66h-220v315h-100zM565 350q0 88 -51 152q-62 78 -179 78h-100v-145h200v-120h-200v-195h100q117 0 179 78q51 64 51 152z" />
    <glyph glyph-name="Ntilde" unicode="&#xd1;" horiz-adv-x="780" 
d="M80 0v700h95l390 -456v456h135v-700h-95l-390 456v-456h-135zM495 920l80 -16q0 -57 -29.5 -95.5t-81.5 -38.5q-32 0 -81 25t-68 25q-35 0 -40 -50l-80 16q0 57 29.5 95.5t81.5 38.5q32 0 81 -25t68 -25q35 0 40 50z" />
    <glyph glyph-name="Ograve" unicode="&#xd2;" horiz-adv-x="790" 
d="M165 350q0 -100 66 -170t164 -70t164 70t66 170t-66 170t-164 70t-164 -70t-66 -170zM30 350q0 152 102.5 256t262.5 104t262.5 -104t102.5 -256t-102.5 -256t-262.5 -104t-262.5 104t-102.5 256zM230 920h140l70 -160h-90z" />
    <glyph glyph-name="Oacute" unicode="&#xd3;" horiz-adv-x="790" 
d="M165 350q0 -100 66 -170t164 -70t164 70t66 170t-66 170t-164 70t-164 -70t-66 -170zM30 350q0 152 102.5 256t262.5 104t262.5 -104t102.5 -256t-102.5 -256t-262.5 -104t-262.5 104t-102.5 256zM420 920h140l-120 -160h-90z" />
    <glyph glyph-name="Ocircumflex" unicode="&#xd4;" horiz-adv-x="790" 
d="M165 350q0 -100 66 -170t164 -70t164 70t66 170t-66 170t-164 70t-164 -70t-66 -170zM30 350q0 152 102.5 256t262.5 104t262.5 -104t102.5 -256t-102.5 -256t-262.5 -104t-262.5 104t-102.5 256zM325 920h140l100 -160h-90l-80 90l-80 -90h-90z" />
    <glyph glyph-name="Otilde" unicode="&#xd5;" horiz-adv-x="790" 
d="M165 350q0 -100 66 -170t164 -70t164 70t66 170t-66 170t-164 70t-164 -70t-66 -170zM30 350q0 152 102.5 256t262.5 104t262.5 -104t102.5 -256t-102.5 -256t-262.5 -104t-262.5 104t-102.5 256zM505 920l80 -16q0 -57 -29.5 -95.5t-81.5 -38.5q-32 0 -81 25t-68 25
q-35 0 -40 -50l-80 16q0 57 29.5 95.5t81.5 38.5q32 0 81 -25t68 -25q35 0 40 50z" />
    <glyph glyph-name="Odieresis" unicode="&#xd6;" horiz-adv-x="790" 
d="M165 350q0 -100 66 -170t164 -70t164 70t66 170t-66 170t-164 70t-164 -70t-66 -170zM30 350q0 152 102.5 256t262.5 104t262.5 -104t102.5 -256t-102.5 -256t-262.5 -104t-262.5 104t-102.5 256zM210 842q0 33 23.5 55.5t56.5 22.5t56.5 -22.5t23.5 -55.5t-23.5 -55.5
t-56.5 -22.5t-56.5 22.5t-23.5 55.5zM420 842q0 33 23.5 55.5t56.5 22.5t56.5 -22.5t23.5 -55.5t-23.5 -55.5t-56.5 -22.5t-56.5 22.5t-23.5 55.5z" />
    <glyph glyph-name="multiply" unicode="&#xd7;" horiz-adv-x="530" 
d="M120 503l145 -145l145 145l78 -78l-145 -145l145 -145l-78 -78l-145 145l-145 -145l-78 78l145 145l-145 145z" />
    <glyph glyph-name="Oslash" unicode="&#xd8;" horiz-adv-x="790" 
d="M30 350q0 152 102.5 256t262.5 104q100 0 184 -46l37 46h164l-104 -125q84 -100 84 -235q0 -152 -102.5 -256t-262.5 -104q-101 0 -185 46l-38 -46h-163l105 124q-84 98 -84 236zM625 350q0 71 -37 132l-295 -348q48 -24 102 -24q98 0 164 70t66 170zM165 350
q0 -73 36 -132l295 348q-48 24 -101 24q-98 0 -164 -70t-66 -170z" />
    <glyph glyph-name="Ugrave" unicode="&#xd9;" horiz-adv-x="750" 
d="M211 920h140l70 -160h-90zM375 -10q-129 0 -210 72q-90 81 -90 233v405h135v-415q0 -87 46 -130q47 -45 119 -45t119 45q46 43 46 130v415h135v-405q0 -152 -90 -233q-81 -72 -210 -72z" />
    <glyph glyph-name="Uacute" unicode="&#xda;" horiz-adv-x="750" 
d="M400 920h140l-120 -160h-90zM375 -10q-129 0 -210 72q-90 81 -90 233v405h135v-415q0 -87 46 -130q47 -45 119 -45t119 45q46 43 46 130v415h135v-405q0 -152 -90 -233q-81 -72 -210 -72z" />
    <glyph glyph-name="Ucircumflex" unicode="&#xdb;" horiz-adv-x="750" 
d="M305 920h140l100 -160h-90l-80 90l-80 -90h-90zM375 -10q-129 0 -210 72q-90 81 -90 233v405h135v-415q0 -87 46 -130q47 -45 119 -45t119 45q46 43 46 130v415h135v-405q0 -152 -90 -233q-81 -72 -210 -72z" />
    <glyph glyph-name="Udieresis" unicode="&#xdc;" horiz-adv-x="750" 
d="M375 -10q-129 0 -210 72q-90 81 -90 233v405h135v-415q0 -87 46 -130q47 -45 119 -45t119 45q46 43 46 130v415h135v-405q0 -152 -90 -233q-81 -72 -210 -72zM190 842q0 33 23.5 55.5t56.5 22.5t56.5 -22.5t23.5 -55.5t-23.5 -55.5t-56.5 -22.5t-56.5 22.5t-23.5 55.5z
M400 842q0 33 23.5 55.5t56.5 22.5t56.5 -22.5t23.5 -55.5t-23.5 -55.5t-56.5 -22.5t-56.5 22.5t-23.5 55.5z" />
    <glyph glyph-name="Yacute" unicode="&#xdd;" horiz-adv-x="625" 
d="M620 700l-240 -383v-317h-135v317l-240 383h154l154 -246l153 246h154zM337 920h140l-120 -160h-90z" />
    <glyph glyph-name="Thorn" unicode="&#xde;" horiz-adv-x="600" 
d="M80 0v700h135v-140h128q120 0 182 -65q55 -57 55 -143t-55 -143q-61 -64 -182 -64h-128v-145h-135zM215 265h122q59 0 85 28q23 25 23 59q0 35 -23 60q-26 28 -85 28h-122v-175z" />
    <glyph glyph-name="germandbls" unicode="&#xdf;" horiz-adv-x="605" 
d="M281 442q41 0 65 22q27 25 27 62q0 35 -24 59.5t-60 24.5q-40 0 -64 -29q-20 -23 -20 -75v-506h-130v505q0 26 3 47q8 57 39 97q63 81 171 81q91 0 153 -60t62 -145q0 -68 -43 -117q50 -28 80 -79.5t30 -111.5q0 -95 -65.5 -161t-160.5 -66q-62 0 -111 27l56 103
q25 -10 47 -10q46 0 75 30t29 74q0 53 -39 84q-31 24 -87 24h-33v120z" />
    <glyph glyph-name="agrave" unicode="&#xe0;" horiz-adv-x="615" 
d="M190 720h140l70 -160h-90zM410 170v145q-45 60 -120 60q-55 0 -90 -39.5t-35 -93.5q0 -57 36.5 -94.5t91.5 -37.5q75 0 117 60zM540 485v-485h-125v39q-58 -49 -135 -49q-112 0 -183 82q-62 72 -62 170q0 107 69.5 180t168.5 73q82 0 142 -49v39h125z" />
    <glyph glyph-name="aacute" unicode="&#xe1;" horiz-adv-x="615" 
d="M330 720h140l-120 -160h-90zM410 170v145q-45 60 -120 60q-55 0 -90 -39.5t-35 -93.5q0 -57 36.5 -94.5t91.5 -37.5q75 0 117 60zM540 485v-485h-125v39q-58 -49 -135 -49q-112 0 -183 82q-62 72 -62 170q0 107 69.5 180t168.5 73q82 0 142 -49v39h125z" />
    <glyph glyph-name="acircumflex" unicode="&#xe2;" horiz-adv-x="615" 
d="M245 720h140l100 -160h-90l-80 90l-80 -90h-90zM410 170v145q-45 60 -120 60q-55 0 -90 -39.5t-35 -93.5q0 -57 36.5 -94.5t91.5 -37.5q75 0 117 60zM540 485v-485h-125v39q-58 -49 -135 -49q-112 0 -183 82q-62 72 -62 170q0 107 69.5 180t168.5 73q82 0 142 -49v39h125
z" />
    <glyph glyph-name="atilde" unicode="&#xe3;" horiz-adv-x="615" 
d="M430 720l80 -16q0 -57 -29.5 -95.5t-81.5 -38.5q-32 0 -81 25t-68 25q-35 0 -40 -50l-80 16q0 57 29.5 95.5t81.5 38.5q32 0 81 -25t68 -25q35 0 40 50zM410 170v145q-45 60 -120 60q-55 0 -90 -39.5t-35 -93.5q0 -57 36.5 -94.5t91.5 -37.5q75 0 117 60zM540 485v-485
h-125v39q-58 -49 -135 -49q-112 0 -183 82q-62 72 -62 170q0 107 69.5 180t168.5 73q82 0 142 -49v39h125z" />
    <glyph glyph-name="adieresis" unicode="&#xe4;" horiz-adv-x="615" 
d="M130 642q0 33 23.5 55.5t56.5 22.5t56.5 -22.5t23.5 -55.5t-23.5 -55.5t-56.5 -22.5t-56.5 22.5t-23.5 55.5zM340 642q0 33 23.5 55.5t56.5 22.5t56.5 -22.5t23.5 -55.5t-23.5 -55.5t-56.5 -22.5t-56.5 22.5t-23.5 55.5zM410 170v145q-45 60 -120 60q-55 0 -90 -39.5
t-35 -93.5q0 -57 36.5 -94.5t91.5 -37.5q75 0 117 60zM540 485v-485h-125v39q-58 -49 -135 -49q-112 0 -183 82q-62 72 -62 170q0 107 69.5 180t168.5 73q82 0 142 -49v39h125z" />
    <glyph glyph-name="aring" unicode="&#xe5;" horiz-adv-x="615" 
d="M215 650q0 46 32 78t78 32t78 -32t32 -78t-32 -78t-78 -32t-78 32t-32 78zM295 650q0 -13 8.5 -21.5t21.5 -8.5t21.5 8.5t8.5 21.5t-8.5 21.5t-21.5 8.5t-21.5 -8.5t-8.5 -21.5zM410 170v145q-45 60 -120 60q-55 0 -90 -39.5t-35 -93.5q0 -57 36.5 -94.5t91.5 -37.5
q75 0 117 60zM540 485v-485h-125v39q-58 -49 -135 -49q-112 0 -183 82q-62 72 -62 170q0 107 69.5 180t168.5 73q82 0 142 -49v39h125z" />
    <glyph glyph-name="ae" unicode="&#xe6;" horiz-adv-x="921" 
d="M800 151l74 -74q-35 -41 -88.5 -64t-110.5 -23q-37 0 -77.5 13.5t-67.5 35.5v-39h-115v39q-58 -49 -135 -49q-112 0 -183 82q-62 72 -62 170q0 107 69.5 180t168.5 73q82 0 142 -49v39h115v-39q51 49 124 49q96 0 164 -72.5t68 -175.5q0 -21 -3 -37h-346q5 -50 44 -82.5
t92 -32.5q38 0 72.5 17t54.5 39zM410 170v145q-45 60 -120 60q-55 0 -90 -39.5t-35 -93.5q0 -57 36.5 -94.5t91.5 -37.5q75 0 117 60zM543 305h210q-5 36 -35 60.5t-68 24.5t-68.5 -23.5t-38.5 -61.5z" />
    <glyph glyph-name="ccedilla" unicode="&#xe7;" horiz-adv-x="540" 
d="M165 242q0 -57 37.5 -94.5t96.5 -37.5q37 0 67.5 18.5t48.5 45.5l100 -75q-69 -92 -172 -105l-27 -144h-130l58 145q-92 16 -150.5 85t-58.5 162q0 106 75 179.5t186 73.5q62 0 115.5 -26.5t88.5 -70.5l-92 -81q-44 58 -112 58q-56 0 -93.5 -38.5t-37.5 -94.5z" />
    <glyph glyph-name="egrave" unicode="&#xe8;" horiz-adv-x="535" 
d="M117 720h140l70 -160h-90zM414 151l74 -74q-35 -41 -88.5 -64t-110.5 -23q-110 0 -182 69.5t-72 182.5q0 105 65.5 179t170.5 74q99 0 164 -72.5t65 -175.5q0 -21 -3 -37h-336q5 -51 42 -83t89 -32q70 0 122 56zM167 305h200q-3 34 -30.5 59.5t-65.5 25.5
q-39 0 -69 -25.5t-35 -59.5z" />
    <glyph glyph-name="eacute" unicode="&#xe9;" horiz-adv-x="535" 
d="M297 720h140l-120 -160h-90zM414 151l74 -74q-35 -41 -88.5 -64t-110.5 -23q-110 0 -182 69.5t-72 182.5q0 105 65.5 179t170.5 74q99 0 164 -72.5t65 -175.5q0 -21 -3 -37h-336q5 -51 42 -83t89 -32q70 0 122 56zM167 305h200q-3 34 -30.5 59.5t-65.5 25.5
q-39 0 -69 -25.5t-35 -59.5z" />
    <glyph glyph-name="ecircumflex" unicode="&#xea;" horiz-adv-x="535" 
d="M207 720h140l100 -160h-90l-80 90l-80 -90h-90zM414 151l74 -74q-35 -41 -88.5 -64t-110.5 -23q-110 0 -182 69.5t-72 182.5q0 105 65.5 179t170.5 74q99 0 164 -72.5t65 -175.5q0 -21 -3 -37h-336q5 -51 42 -83t89 -32q70 0 122 56zM167 305h200q-3 34 -30.5 59.5
t-65.5 25.5q-39 0 -69 -25.5t-35 -59.5z" />
    <glyph glyph-name="edieresis" unicode="&#xeb;" horiz-adv-x="535" 
d="M92 642q0 33 23.5 55.5t56.5 22.5t56.5 -22.5t23.5 -55.5t-23.5 -55.5t-56.5 -22.5t-56.5 22.5t-23.5 55.5zM302 642q0 33 23.5 55.5t56.5 22.5t56.5 -22.5t23.5 -55.5t-23.5 -55.5t-56.5 -22.5t-56.5 22.5t-23.5 55.5zM414 151l74 -74q-35 -41 -88.5 -64t-110.5 -23
q-110 0 -182 69.5t-72 182.5q0 105 65.5 179t170.5 74q99 0 164 -72.5t65 -175.5q0 -21 -3 -37h-336q5 -51 42 -83t89 -32q70 0 122 56zM167 305h200q-3 34 -30.5 59.5t-65.5 25.5q-39 0 -69 -25.5t-35 -59.5z" />
    <glyph glyph-name="igrave" unicode="&#xec;" horiz-adv-x="280" 
d="M205 485v-485h-130v485h130zM-15 720h140l70 -160h-90z" />
    <glyph glyph-name="iacute" unicode="&#xed;" horiz-adv-x="280" 
d="M205 485v-485h-130v485h130zM155 720h140l-120 -160h-90z" />
    <glyph glyph-name="icircumflex" unicode="&#xee;" horiz-adv-x="280" 
d="M205 485v-485h-130v485h130zM70 720h140l100 -160h-90l-80 90l-80 -90h-90z" />
    <glyph glyph-name="idieresis" unicode="&#xef;" horiz-adv-x="280" 
d="M205 485v-485h-130v485h130zM-44 642q0 33 23.5 55.5t56.5 22.5t56.5 -22.5t23.5 -55.5t-23.5 -55.5t-56.5 -22.5t-56.5 22.5t-23.5 55.5zM166 642q0 33 23.5 55.5t56.5 22.5t56.5 -22.5t23.5 -55.5t-23.5 -55.5t-56.5 -22.5t-56.5 22.5t-23.5 55.5z" />
    <glyph glyph-name="eth" unicode="&#xf0;" horiz-adv-x="586" 
d="M94 576l90 51l-58 83h151l15 -21l90 51l49 -88l-80 -46l111 -153q89 -122 89 -211q0 -105 -73.5 -178.5t-182.5 -73.5q-111 0 -185.5 73t-74.5 179q0 103 69 175.5t176 76.5l-37 51l-99 -56zM423 242q0 57 -37 103l-9 11q-29 19 -74 19q-61 0 -99.5 -37t-38.5 -96
q0 -56 37 -94t93 -38q55 0 91.5 38.5t36.5 93.5z" />
    <glyph glyph-name="ntilde" unicode="&#xf1;" horiz-adv-x="620" 
d="M205 0h-130v485h125v-39q60 49 137 49q103 0 168 -78q50 -59 50 -170v-247h-130v257q0 62 -29 91q-27 27 -73 27q-37 0 -69.5 -18.5t-48.5 -41.5v-315zM420 720l80 -16q0 -57 -29.5 -95.5t-81.5 -38.5q-32 0 -81 25t-68 25q-35 0 -40 -50l-80 16q0 57 29.5 95.5
t81.5 38.5q32 0 81 -25t68 -25q35 0 40 50z" />
    <glyph glyph-name="ograve" unicode="&#xf2;" horiz-adv-x="586" 
d="M35 242q0 106 74 179.5t184 73.5t184 -73.5t74 -179.5t-74 -179t-184 -73t-184 73t-74 179zM165 242q0 -56 36 -94t92 -38t92 38t36 94t-36 94.5t-92 38.5t-92 -38.5t-36 -94.5zM128 720h140l70 -160h-90z" />
    <glyph glyph-name="oacute" unicode="&#xf3;" horiz-adv-x="586" 
d="M35 242q0 106 74 179.5t184 73.5t184 -73.5t74 -179.5t-74 -179t-184 -73t-184 73t-74 179zM165 242q0 -56 36 -94t92 -38t92 38t36 94t-36 94.5t-92 38.5t-92 -38.5t-36 -94.5zM318 720h140l-120 -160h-90z" />
    <glyph glyph-name="ocircumflex" unicode="&#xf4;" horiz-adv-x="586" 
d="M35 242q0 106 74 179.5t184 73.5t184 -73.5t74 -179.5t-74 -179t-184 -73t-184 73t-74 179zM165 242q0 -56 36 -94t92 -38t92 38t36 94t-36 94.5t-92 38.5t-92 -38.5t-36 -94.5zM223 720h140l100 -160h-90l-80 90l-80 -90h-90z" />
    <glyph glyph-name="otilde" unicode="&#xf5;" horiz-adv-x="586" 
d="M35 242q0 106 74 179.5t184 73.5t184 -73.5t74 -179.5t-74 -179t-184 -73t-184 73t-74 179zM165 242q0 -56 36 -94t92 -38t92 38t36 94t-36 94.5t-92 38.5t-92 -38.5t-36 -94.5zM403 720l80 -16q0 -57 -29.5 -95.5t-81.5 -38.5q-32 0 -81 25t-68 25q-35 0 -40 -50l-80 16
q0 57 29.5 95.5t81.5 38.5q32 0 81 -25t68 -25q35 0 40 50z" />
    <glyph glyph-name="odieresis" unicode="&#xf6;" horiz-adv-x="586" 
d="M35 242q0 106 74 179.5t184 73.5t184 -73.5t74 -179.5t-74 -179t-184 -73t-184 73t-74 179zM165 242q0 -56 36 -94t92 -38t92 38t36 94t-36 94.5t-92 38.5t-92 -38.5t-36 -94.5zM108 642q0 33 23.5 55.5t56.5 22.5t56.5 -22.5t23.5 -55.5t-23.5 -55.5t-56.5 -22.5
t-56.5 22.5t-23.5 55.5zM318 642q0 33 23.5 55.5t56.5 22.5t56.5 -22.5t23.5 -55.5t-23.5 -55.5t-56.5 -22.5t-56.5 22.5t-23.5 55.5z" />
    <glyph glyph-name="divide" unicode="&#xf7;" horiz-adv-x="550" 
d="M45 335h460v-110h-460v110zM200 457q0 31 22 52t53 21t53 -21t22 -52t-22 -52t-53 -21t-53 21t-22 52zM200 103q0 31 22 52t53 21t53 -21t22 -52t-22 -52t-53 -21t-53 21t-22 52z" />
    <glyph glyph-name="oslash" unicode="&#xf8;" horiz-adv-x="586" 
d="M437 495h143l-82 -98q53 -69 53 -155q0 -106 -74 -179t-184 -73q-67 0 -121 28l-23 -28h-143l81 98q-52 66 -52 154q0 106 74 179.5t184 73.5q65 0 121 -28zM421 242q0 27 -9 51l-151 -180q15 -3 32 -3q56 0 92 38t36 94zM165 242q0 -27 9 -50l150 179q-13 4 -31 4
q-56 0 -92 -38.5t-36 -94.5z" />
    <glyph glyph-name="ugrave" unicode="&#xf9;" horiz-adv-x="610" 
d="M140 720h140l70 -160h-90zM405 485h130v-485h-125v39q-55 -49 -131 -49q-102 0 -165 78q-49 60 -49 160v257h130v-262q0 -56 24 -83q27 -30 73 -30q66 0 113 60v315z" />
    <glyph glyph-name="uacute" unicode="&#xfa;" horiz-adv-x="610" 
d="M330 720h140l-120 -160h-90zM405 485h130v-485h-125v39q-55 -49 -131 -49q-102 0 -165 78q-49 60 -49 160v257h130v-262q0 -56 24 -83q27 -30 73 -30q66 0 113 60v315z" />
    <glyph glyph-name="ucircumflex" unicode="&#xfb;" horiz-adv-x="610" 
d="M230 720h140l100 -160h-90l-80 90l-80 -90h-90zM405 485h130v-485h-125v39q-55 -49 -131 -49q-102 0 -165 78q-49 60 -49 160v257h130v-262q0 -56 24 -83q27 -30 73 -30q66 0 113 60v315z" />
    <glyph glyph-name="udieresis" unicode="&#xfc;" horiz-adv-x="610" 
d="M115 642q0 33 23.5 55.5t56.5 22.5t56.5 -22.5t23.5 -55.5t-23.5 -55.5t-56.5 -22.5t-56.5 22.5t-23.5 55.5zM325 642q0 33 23.5 55.5t56.5 22.5t56.5 -22.5t23.5 -55.5t-23.5 -55.5t-56.5 -22.5t-56.5 22.5t-23.5 55.5zM405 485h130v-485h-125v39q-55 -49 -131 -49
q-102 0 -165 78q-49 60 -49 160v257h130v-262q0 -56 24 -83q27 -30 73 -30q66 0 113 60v315z" />
    <glyph glyph-name="yacute" unicode="&#xfd;" horiz-adv-x="573" 
d="M320 720h140l-120 -160h-90zM229 -240h-136l134 289l-217 436h143l142 -291l131 291h137z" />
    <glyph glyph-name="thorn" unicode="&#xfe;" horiz-adv-x="615" 
d="M75 710h130v-260q57 45 137 45q99 0 168.5 -73t69.5 -180q0 -99 -61 -170q-33 -38 -82 -60t-102 -22q-73 0 -130 44v-274h-130v950zM205 315v-145q42 -60 117 -60q55 0 91.5 37.5t36.5 94.5q0 54 -35 93.5t-90 39.5q-75 0 -120 -60z" />
    <glyph glyph-name="ydieresis" unicode="&#xff;" horiz-adv-x="573" 
d="M105 642q0 33 23.5 55.5t56.5 22.5t56.5 -22.5t23.5 -55.5t-23.5 -55.5t-56.5 -22.5t-56.5 22.5t-23.5 55.5zM315 642q0 33 23.5 55.5t56.5 22.5t56.5 -22.5t23.5 -55.5t-23.5 -55.5t-56.5 -22.5t-56.5 22.5t-23.5 55.5zM229 -240h-136l134 289l-217 436h143l142 -291
l131 291h137z" />
    <glyph glyph-name="Amacron" unicode="&#x100;" horiz-adv-x="695" 
d="M187 890h320v-100h-320v100zM141 0h-141l300 700h95l300 -700h-141l-66 155h-281zM347 482l-89 -207h178z" />
    <glyph glyph-name="amacron" unicode="&#x101;" horiz-adv-x="615" 
d="M157 690h320v-100h-320v100zM410 170v145q-45 60 -120 60q-55 0 -90 -39.5t-35 -93.5q0 -57 36.5 -94.5t91.5 -37.5q75 0 117 60zM540 485v-485h-125v39q-58 -49 -135 -49q-112 0 -183 82q-62 72 -62 170q0 107 69.5 180t168.5 73q82 0 142 -49v39h125z" />
    <glyph glyph-name="Abreve" unicode="&#x102;" horiz-adv-x="695" 
d="M392 920h105q0 -62 -44 -106t-106 -44t-106 44t-44 106h105q0 -19 13 -32t32 -13t32 13t13 32zM141 0h-141l300 700h95l300 -700h-141l-66 155h-281zM347 482l-89 -207h178z" />
    <glyph glyph-name="abreve" unicode="&#x103;" horiz-adv-x="615" 
d="M362 720h105q0 -62 -44 -106t-106 -44t-106 44t-44 106h105q0 -19 13 -32t32 -13t32 13t13 32zM410 170v145q-45 60 -120 60q-55 0 -90 -39.5t-35 -93.5q0 -57 36.5 -94.5t91.5 -37.5q75 0 117 60zM540 485v-485h-125v39q-58 -49 -135 -49q-112 0 -183 82q-62 72 -62 170
q0 107 69.5 180t168.5 73q82 0 142 -49v39h125z" />
    <glyph glyph-name="Aogonek" unicode="&#x104;" horiz-adv-x="695" 
d="M141 0h-141l300 700h95l300 -700q-26 -38 -26 -63q0 -18 11 -30t29 -12q13 0 25 4l15 -109q-20 -10 -65 -10q-61 0 -98 34.5t-37 85.5q0 36 16 74l-77 181h-281zM347 482l-89 -207h178z" />
    <glyph glyph-name="aogonek" unicode="&#x105;" horiz-adv-x="615" 
d="M540 485v-485q-26 -38 -26 -63q0 -18 11 -30t29 -12q13 0 25 4l15 -109q-20 -10 -65 -10q-61 0 -98 34.5t-37 85.5q0 42 21 93v46q-58 -49 -135 -49q-112 0 -183 82q-62 72 -62 170q0 107 69.5 180t168.5 73q82 0 142 -49v39h125zM410 170v145q-45 60 -120 60
q-55 0 -90 -39.5t-35 -93.5q0 -57 36.5 -94.5t91.5 -37.5q75 0 117 60z" />
    <glyph glyph-name="Cacute" unicode="&#x106;" horiz-adv-x="715" 
d="M398 590q-99 0 -166 -70t-67 -170q0 -102 69 -171t170 -69q123 0 198 97l93 -83q-48 -61 -124.5 -97.5t-169.5 -36.5q-162 0 -266.5 103.5t-104.5 256.5t104 256.5t265 103.5q153 0 256 -100l-87 -92q-72 72 -170 72zM402 920h140l-120 -160h-90z" />
    <glyph glyph-name="cacute" unicode="&#x107;" horiz-adv-x="540" 
d="M415 174l100 -75q-82 -109 -220 -109q-112 0 -186 73t-74 179t75 179.5t186 73.5q62 0 115.5 -26.5t88.5 -70.5l-92 -81q-44 58 -112 58q-56 0 -93.5 -38.5t-37.5 -94.5q0 -57 37.5 -94.5t96.5 -37.5q37 0 67.5 18.5t48.5 45.5zM315 720h140l-120 -160h-90z" />
    <glyph glyph-name="Ccircumflex" unicode="&#x108;" horiz-adv-x="715" 
d="M398 590q-99 0 -166 -70t-67 -170q0 -102 69 -171t170 -69q123 0 198 97l93 -83q-48 -61 -124.5 -97.5t-169.5 -36.5q-162 0 -266.5 103.5t-104.5 256.5t104 256.5t265 103.5q153 0 256 -100l-87 -92q-72 72 -170 72zM325 920h140l100 -160h-90l-80 90l-80 -90h-90z" />
    <glyph glyph-name="ccircumflex" unicode="&#x109;" horiz-adv-x="540" 
d="M415 174l100 -75q-82 -109 -220 -109q-112 0 -186 73t-74 179t75 179.5t186 73.5q62 0 115.5 -26.5t88.5 -70.5l-92 -81q-44 58 -112 58q-56 0 -93.5 -38.5t-37.5 -94.5q0 -57 37.5 -94.5t96.5 -37.5q37 0 67.5 18.5t48.5 45.5zM220 720h140l100 -160h-90l-80 90l-80 -90
h-90z" />
    <glyph glyph-name="Cdotaccent" unicode="&#x10a;" horiz-adv-x="715" 
d="M398 590q-99 0 -166 -70t-67 -170q0 -102 69 -171t170 -69q123 0 198 97l93 -83q-48 -61 -124.5 -97.5t-169.5 -36.5q-162 0 -266.5 103.5t-104.5 256.5t104 256.5t265 103.5q153 0 256 -100l-87 -92q-72 72 -170 72zM315 857q0 35 25 59t60 24t60 -24t25 -59t-25 -59
t-60 -24t-60 24t-25 59z" />
    <glyph glyph-name="cdotaccent" unicode="&#x10b;" horiz-adv-x="540" 
d="M415 174l100 -75q-82 -109 -220 -109q-112 0 -186 73t-74 179t75 179.5t186 73.5q62 0 115.5 -26.5t88.5 -70.5l-92 -81q-44 58 -112 58q-56 0 -93.5 -38.5t-37.5 -94.5q0 -57 37.5 -94.5t96.5 -37.5q37 0 67.5 18.5t48.5 45.5zM185 657q0 35 25 59t60 24t60 -24t25 -59
t-25 -59t-60 -24t-60 24t-25 59z" />
    <glyph glyph-name="Ccaron" unicode="&#x10c;" horiz-adv-x="715" 
d="M398 590q-99 0 -166 -70t-67 -170q0 -102 69 -171t170 -69q123 0 198 97l93 -83q-48 -61 -124.5 -97.5t-169.5 -36.5q-162 0 -266.5 103.5t-104.5 256.5t104 256.5t265 103.5q153 0 256 -100l-87 -92q-72 72 -170 72zM465 760h-140l-100 160h90l80 -90l80 90h90z" />
    <glyph glyph-name="ccaron" unicode="&#x10d;" horiz-adv-x="540" 
d="M415 174l100 -75q-82 -109 -220 -109q-112 0 -186 73t-74 179t75 179.5t186 73.5q62 0 115.5 -26.5t88.5 -70.5l-92 -81q-44 58 -112 58q-56 0 -93.5 -38.5t-37.5 -94.5q0 -57 37.5 -94.5t96.5 -37.5q37 0 67.5 18.5t48.5 45.5zM360 560h-140l-100 160h90l80 -90l80 90
h90z" />
    <glyph glyph-name="Dcaron" unicode="&#x10e;" horiz-adv-x="710" 
d="M545 350q0 88 -51 152q-62 78 -179 78h-100v-460h100q117 0 179 78q51 64 51 152zM80 700h220q151 0 241 -66q65 -48 102 -123t37 -161t-37 -161t-102 -123q-90 -66 -241 -66h-220v700zM375 760h-140l-100 160h90l80 -90l80 90h90z" />
    <glyph glyph-name="dcaron" unicode="&#x10f;" horiz-adv-x="685" 
d="M650 700h140l-120 -160h-90zM410 170v145q-45 60 -120 60q-55 0 -90 -39.5t-35 -93.5q0 -57 36.5 -94.5t91.5 -37.5q75 0 117 60zM540 0h-125v39q-58 -49 -135 -49q-112 0 -183 82q-62 72 -62 170q0 107 69.5 180t168.5 73q80 0 137 -45v260h130v-710z" />
    <glyph glyph-name="Dcroat" unicode="&#x110;" horiz-adv-x="730" 
d="M0 315v120h100v265h220q151 0 241 -66q65 -48 102 -123t37 -161t-37 -161t-102 -123q-90 -66 -241 -66h-220v315h-100zM565 350q0 88 -51 152q-62 78 -179 78h-100v-145h200v-120h-200v-195h100q117 0 179 78q51 64 51 152z" />
    <glyph glyph-name="dcroat" unicode="&#x111;" horiz-adv-x="615" 
d="M540 0h-125v39q-58 -49 -135 -49q-112 0 -183 82q-62 72 -62 170q0 107 69.5 180t168.5 73q80 0 137 -45v90h-130v110h130v60h130v-60h80v-110h-80v-540zM410 170v145q-45 60 -120 60q-55 0 -90 -39.5t-35 -93.5q0 -57 36.5 -94.5t91.5 -37.5q75 0 117 60z" />
    <glyph glyph-name="Emacron" unicode="&#x112;" horiz-adv-x="550" 
d="M500 580h-285v-145h215v-120h-215v-195h295v-120h-430v700h420v-120zM125 890h320v-100h-320v100z" />
    <glyph glyph-name="emacron" unicode="&#x113;" horiz-adv-x="535" 
d="M414 151l74 -74q-35 -41 -88.5 -64t-110.5 -23q-110 0 -182 69.5t-72 182.5q0 105 65.5 179t170.5 74q99 0 164 -72.5t65 -175.5q0 -21 -3 -37h-336q5 -51 42 -83t89 -32q70 0 122 56zM167 305h200q-3 34 -30.5 59.5t-65.5 25.5q-39 0 -69 -25.5t-35 -59.5zM110 690h320
v-100h-320v100z" />
    <glyph glyph-name="Ebreve" unicode="&#x114;" horiz-adv-x="550" 
d="M500 580h-285v-145h215v-120h-215v-195h295v-120h-430v700h420v-120zM336 920h105q0 -62 -44 -106t-106 -44t-106 44t-44 106h105q0 -19 13 -32t32 -13t32 13t13 32z" />
    <glyph glyph-name="ebreve" unicode="&#x115;" horiz-adv-x="535" 
d="M414 151l74 -74q-35 -41 -88.5 -64t-110.5 -23q-110 0 -182 69.5t-72 182.5q0 105 65.5 179t170.5 74q99 0 164 -72.5t65 -175.5q0 -21 -3 -37h-336q5 -51 42 -83t89 -32q70 0 122 56zM167 305h200q-3 34 -30.5 59.5t-65.5 25.5q-39 0 -69 -25.5t-35 -59.5zM322 720h105
q0 -62 -44 -106t-106 -44t-106 44t-44 106h105q0 -19 13 -32t32 -13t32 13t13 32z" />
    <glyph glyph-name="Edotaccent" unicode="&#x116;" horiz-adv-x="550" 
d="M500 580h-285v-145h215v-120h-215v-195h295v-120h-430v700h420v-120zM210 857q0 35 25 59t60 24t60 -24t25 -59t-25 -59t-60 -24t-60 24t-25 59z" />
    <glyph glyph-name="edotaccent" unicode="&#x117;" horiz-adv-x="535" 
d="M414 151l74 -74q-35 -41 -88.5 -64t-110.5 -23q-110 0 -182 69.5t-72 182.5q0 105 65.5 179t170.5 74q99 0 164 -72.5t65 -175.5q0 -21 -3 -37h-336q5 -51 42 -83t89 -32q70 0 122 56zM167 305h200q-3 34 -30.5 59.5t-65.5 25.5q-39 0 -69 -25.5t-35 -59.5zM192 657
q0 35 25 59t60 24t60 -24t25 -59t-25 -59t-60 -24t-60 24t-25 59z" />
    <glyph glyph-name="Eogonek" unicode="&#x118;" horiz-adv-x="550" 
d="M500 580h-285v-145h215v-120h-215v-195h295v-120h-70q-25 -36 -25 -63q0 -18 11 -30t29 -12q13 0 25 4l15 -109q-20 -10 -65 -10q-61 0 -98 34.5t-37 85.5q0 55 30 100h-245v700h420v-120z" />
    <glyph glyph-name="eogonek" unicode="&#x119;" horiz-adv-x="535" 
d="M414 151l74 -74q-40 -48 -106 -71q-29 -37 -29 -69q0 -18 11 -30t29 -12q13 0 25 4l15 -109q-20 -10 -65 -10q-61 0 -98 34.5t-37 85.5q0 47 25 92q-98 9 -160.5 77.5t-62.5 172.5q0 105 65.5 179t170.5 74q99 0 164 -72.5t65 -175.5q0 -21 -3 -37h-336q5 -51 42 -83
t89 -32q70 0 122 56zM167 305h200q-3 34 -30.5 59.5t-65.5 25.5q-39 0 -69 -25.5t-35 -59.5z" />
    <glyph glyph-name="Ecaron" unicode="&#x11a;" horiz-adv-x="550" 
d="M500 580h-285v-145h215v-120h-215v-195h295v-120h-430v700h420v-120zM355 760h-140l-100 160h90l80 -90l80 90h90z" />
    <glyph glyph-name="ecaron" unicode="&#x11b;" horiz-adv-x="535" 
d="M414 151l74 -74q-35 -41 -88.5 -64t-110.5 -23q-110 0 -182 69.5t-72 182.5q0 105 65.5 179t170.5 74q99 0 164 -72.5t65 -175.5q0 -21 -3 -37h-336q5 -51 42 -83t89 -32q70 0 122 56zM167 305h200q-3 34 -30.5 59.5t-65.5 25.5q-39 0 -69 -25.5t-35 -59.5zM340 560h-140
l-100 160h90l80 -90l80 90h90z" />
    <glyph glyph-name="Gcircumflex" unicode="&#x11c;" horiz-adv-x="755" 
d="M325 920h140l100 -160h-90l-80 90l-80 -90h-90zM398 590q-99 0 -166 -70t-67 -170q0 -102 69 -171t170 -69q88 0 156 54v151h-180v120h315v-311q-48 -61 -124.5 -97.5t-169.5 -36.5q-162 0 -266.5 103.5t-104.5 256.5t104 256.5t265 103.5q153 0 256 -100l-87 -92
q-72 72 -170 72z" />
    <glyph glyph-name="gcircumflex" unicode="&#x11d;" horiz-adv-x="615" 
d="M245 720h140l100 -160h-90l-80 90l-80 -90h-90zM540 485v-458q0 -118 -44 -180q-33 -46 -89.5 -71.5t-125.5 -25.5t-132.5 28t-100.5 72l82 85q65 -70 151 -70q66 0 99 39q30 33 30 114v16q-57 -44 -130 -44q-53 0 -102 22t-82 60q-61 71 -61 170q0 107 69.5 180
t168.5 73q82 0 142 -49v39h125zM410 170v145q-45 60 -120 60q-55 0 -90 -39.5t-35 -93.5q0 -57 36.5 -94.5t91.5 -37.5q75 0 117 60z" />
    <glyph glyph-name="Gbreve" unicode="&#x11e;" horiz-adv-x="755" 
d="M398 590q-99 0 -166 -70t-67 -170q0 -102 69 -171t170 -69q88 0 156 54v151h-180v120h315v-311q-48 -61 -124.5 -97.5t-169.5 -36.5q-162 0 -266.5 103.5t-104.5 256.5t104 256.5t265 103.5q153 0 256 -100l-87 -92q-72 72 -170 72zM442 920h105q0 -62 -44 -106t-106 -44
t-106 44t-44 106h105q0 -19 13 -32t32 -13t32 13t13 32z" />
    <glyph glyph-name="gbreve" unicode="&#x11f;" horiz-adv-x="615" 
d="M362 720h105q0 -62 -44 -106t-106 -44t-106 44t-44 106h105q0 -19 13 -32t32 -13t32 13t13 32zM540 485v-458q0 -118 -44 -180q-33 -46 -89.5 -71.5t-125.5 -25.5t-132.5 28t-100.5 72l82 85q65 -70 151 -70q66 0 99 39q30 33 30 114v16q-57 -44 -130 -44q-53 0 -102 22
t-82 60q-61 71 -61 170q0 107 69.5 180t168.5 73q82 0 142 -49v39h125zM410 170v145q-45 60 -120 60q-55 0 -90 -39.5t-35 -93.5q0 -57 36.5 -94.5t91.5 -37.5q75 0 117 60z" />
    <glyph glyph-name="Gdotaccent" unicode="&#x120;" horiz-adv-x="755" 
d="M315 857q0 35 25 59t60 24t60 -24t25 -59t-25 -59t-60 -24t-60 24t-25 59zM398 590q-99 0 -166 -70t-67 -170q0 -102 69 -171t170 -69q88 0 156 54v151h-180v120h315v-311q-48 -61 -124.5 -97.5t-169.5 -36.5q-162 0 -266.5 103.5t-104.5 256.5t104 256.5t265 103.5
q153 0 256 -100l-87 -92q-72 72 -170 72z" />
    <glyph glyph-name="gdotaccent" unicode="&#x121;" horiz-adv-x="615" 
d="M230 657q0 35 25 59t60 24t60 -24t25 -59t-25 -59t-60 -24t-60 24t-25 59zM540 485v-458q0 -118 -44 -180q-33 -46 -89.5 -71.5t-125.5 -25.5t-132.5 28t-100.5 72l82 85q65 -70 151 -70q66 0 99 39q30 33 30 114v16q-57 -44 -130 -44q-53 0 -102 22t-82 60
q-61 71 -61 170q0 107 69.5 180t168.5 73q82 0 142 -49v39h125zM410 170v145q-45 60 -120 60q-55 0 -90 -39.5t-35 -93.5q0 -57 36.5 -94.5t91.5 -37.5q75 0 117 60z" />
    <glyph glyph-name="Gcommaaccent" unicode="&#x122;" horiz-adv-x="755" 
d="M398 590q-99 0 -166 -70t-67 -170q0 -102 69 -171t170 -69q88 0 156 54v151h-180v120h315v-311q-48 -61 -124.5 -97.5t-169.5 -36.5q-162 0 -266.5 103.5t-104.5 256.5t104 256.5t265 103.5q153 0 256 -100l-87 -92q-72 72 -170 72zM342 -60h140l-120 -160h-90z" />
    <glyph glyph-name="gcommaaccent" unicode="&#x123;" horiz-adv-x="615" 
d="M355 560h-140l120 160h90zM540 485v-458q0 -118 -44 -180q-33 -46 -89.5 -71.5t-125.5 -25.5t-132.5 28t-100.5 72l82 85q65 -70 151 -70q66 0 99 39q30 33 30 114v16q-57 -44 -130 -44q-53 0 -102 22t-82 60q-61 71 -61 170q0 107 69.5 180t168.5 73q82 0 142 -49v39
h125zM410 170v145q-45 60 -120 60q-55 0 -90 -39.5t-35 -93.5q0 -57 36.5 -94.5t91.5 -37.5q75 0 117 60z" />
    <glyph glyph-name="Hcircumflex" unicode="&#x124;" horiz-adv-x="780" 
d="M565 0v315h-350v-315h-135v700h135v-265h350v265h135v-700h-135zM320 920h140l100 -160h-90l-80 90l-80 -90h-90z" />
    <glyph glyph-name="hcircumflex" unicode="&#x125;" horiz-adv-x="620" 
d="M81 930h140l100 -160h-90l-80 90l-80 -90h-90zM205 315v-315h-130v710h130v-260q58 45 132 45q103 0 168 -78q50 -59 50 -170v-247h-130v257q0 62 -29 91q-27 27 -73 27q-37 0 -69.5 -18.5t-48.5 -41.5z" />
    <glyph glyph-name="Hbar" unicode="&#x126;" horiz-adv-x="780" 
d="M800 641v-120h-100v-521h-135v315h-350v-315h-135v521h-100v120h100v59h135v-59h350v59h135v-59h100zM215 435h350v86h-350v-86z" />
    <glyph glyph-name="hbar" unicode="&#x127;" horiz-adv-x="620" 
d="M205 315v-315h-130v540h-80v100h80v70h130v-70h130v-100h-130v-90q58 45 132 45q103 0 168 -78q50 -59 50 -170v-247h-130v257q0 62 -29 91q-27 27 -73 27q-37 0 -69.5 -18.5t-48.5 -41.5z" />
    <glyph glyph-name="Itilde" unicode="&#x128;" horiz-adv-x="295" 
d="M80 0v700h135v-700h-135zM258 920l80 -16q0 -57 -29.5 -95.5t-81.5 -38.5q-32 0 -81 25t-68 25q-35 0 -40 -50l-80 16q0 57 29.5 95.5t81.5 38.5q32 0 81 -25t68 -25q35 0 40 50z" />
    <glyph glyph-name="itilde" unicode="&#x129;" horiz-adv-x="280" 
d="M205 485v-485h-130v485h130zM250 720l80 -16q0 -57 -29.5 -95.5t-81.5 -38.5q-32 0 -81 25t-68 25q-35 0 -40 -50l-80 16q0 57 29.5 95.5t81.5 38.5q32 0 81 -25t68 -25q35 0 40 50z" />
    <glyph glyph-name="Imacron" unicode="&#x12a;" horiz-adv-x="295" 
d="M80 0v700h135v-700h-135zM-12 890h320v-100h-320v100z" />
    <glyph glyph-name="imacron" unicode="&#x12b;" horiz-adv-x="280" 
d="M205 485v-485h-130v485h130zM-20 690h320v-100h-320v100z" />
    <glyph glyph-name="Ibreve" unicode="&#x12c;" horiz-adv-x="295" 
d="M80 0v700h135v-700h-135zM193 920h105q0 -62 -44 -106t-106 -44t-106 44t-44 106h105q0 -19 13 -32t32 -13t32 13t13 32z" />
    <glyph glyph-name="ibreve" unicode="&#x12d;" horiz-adv-x="280" 
d="M205 485v-485h-130v485h130zM185 720h105q0 -62 -44 -106t-106 -44t-106 44t-44 106h105q0 -19 13 -32t32 -13t32 13t13 32z" />
    <glyph glyph-name="Iogonek" unicode="&#x12e;" horiz-adv-x="295" 
d="M215 700v-700q-26 -38 -26 -63q0 -18 11 -30t29 -12q13 0 25 4l15 -109q-20 -10 -65 -10q-61 0 -98 34.5t-37 85.5q0 55 30 100h-19v700h135z" />
    <glyph glyph-name="iogonek" unicode="&#x12f;" horiz-adv-x="280" 
d="M205 485v-485q-26 -38 -26 -63q0 -18 11 -30t29 -12q13 0 25 4l15 -109q-20 -10 -65 -10q-61 0 -98 34.5t-37 85.5q0 38 16 80v505h130zM55 657q0 35 25 59t60 24t60 -24t25 -59t-25 -59t-60 -24t-60 24t-25 59z" />
    <glyph glyph-name="Idotaccent" unicode="&#x130;" horiz-adv-x="295" 
d="M80 0v700h135v-700h-135zM63 857q0 35 25 59t60 24t60 -24t25 -59t-25 -59t-60 -24t-60 24t-25 59z" />
    <glyph glyph-name="dotlessi" unicode="&#x131;" horiz-adv-x="280" 
d="M205 485v-485h-130v485h130z" />
    <glyph glyph-name="IJ" unicode="&#x132;" horiz-adv-x="795" 
d="M80 0v700h135v-700h-135zM720 700v-480q0 -83 -22 -124q-27 -50 -78.5 -78t-112.5 -28q-68 0 -120.5 33t-76.5 90l116 58q24 -61 82 -61q39 0 61 28q16 21 16 67v495h135z" />
    <glyph glyph-name="ij" unicode="&#x133;" horiz-adv-x="600" 
d="M205 485v-485h-130v485h130zM55 657q0 35 25 59t60 24t60 -24t25 -59t-25 -59t-60 -24t-60 24t-25 59zM375 657q0 35 25 59t60 24t60 -24t25 -59t-25 -59t-60 -24t-60 24t-25 59zM260 -243l20 118q15 -5 34 -5q41 0 62 22q19 20 19 83v510h130v-510q0 -103 -35 -153
q-51 -72 -165 -72q-32 0 -65 7z" />
    <glyph glyph-name="Jcircumflex" unicode="&#x134;" horiz-adv-x="500" 
d="M277 920h140l100 -160h-90l-80 90l-80 -90h-90zM425 700v-480q0 -83 -22 -124q-27 -50 -78.5 -78t-112.5 -28q-68 0 -120.5 33t-76.5 90l116 58q24 -61 82 -61q39 0 61 28q16 21 16 67v495h135z" />
    <glyph glyph-name="jcircumflex" unicode="&#x135;" horiz-adv-x="320" 
d="M100 720h140l100 -160h-90l-80 90l-80 -90h-90zM-20 -243l20 118q15 -5 34 -5q41 0 62 22q19 20 19 83v510h130v-510q0 -103 -35 -153q-51 -72 -165 -72q-32 0 -65 7z" />
    <glyph glyph-name="Kcommaaccent" unicode="&#x136;" horiz-adv-x="695" 
d="M522 0l-307 344v-344h-135v700h135v-280l265 280h178l-308 -320l345 -380h-173zM292 -60h140l-120 -160h-90z" />
    <glyph glyph-name="kcommaaccent" unicode="&#x137;" horiz-adv-x="595" 
d="M555 485l-237 -218l267 -267h-175l-205 210v-210h-130v700h130v-372l167 157h183zM232 -60h140l-120 -160h-90z" />
    <glyph glyph-name="kgreenlandic" unicode="&#x138;" horiz-adv-x="595" 
d="M555 485l-237 -218l267 -267h-175l-205 210v-210h-130v485h130v-157l167 157h183z" />
    <glyph glyph-name="Lacute" unicode="&#x139;" horiz-adv-x="535" 
d="M170 920h140l-120 -160h-90zM80 0v700h135v-580h295v-120h-430z" />
    <glyph glyph-name="lacute" unicode="&#x13a;" horiz-adv-x="280" 
d="M165 930h140l-120 -160h-90zM205 710v-710h-130v710h130z" />
    <glyph glyph-name="Lcommaaccent" unicode="&#x13b;" horiz-adv-x="535" 
d="M80 0v700h135v-580h295v-120h-430zM232 -60h140l-120 -160h-90z" />
    <glyph glyph-name="lcommaaccent" unicode="&#x13c;" horiz-adv-x="280" 
d="M205 710v-710h-130v710h130zM75 -60h140l-120 -160h-90z" />
    <glyph glyph-name="Lcaron" unicode="&#x13d;" horiz-adv-x="535" 
d="M325 700h140l-120 -160h-90zM80 0v700h135v-580h295v-120h-430z" />
    <glyph glyph-name="lcaron" unicode="&#x13e;" horiz-adv-x="350" 
d="M315 700h140l-120 -160h-90zM205 710v-710h-130v710h130z" />
    <glyph glyph-name="Ldot" unicode="&#x13f;" horiz-adv-x="535" 
d="M80 0v700h135v-580h295v-120h-430zM294 350q0 35 25 59t60 24t60 -24t25 -59t-25 -59t-60 -24t-60 24t-25 59z" />
    <glyph glyph-name="ldot" unicode="&#x140;" horiz-adv-x="340" 
d="M205 710v-710h-130v710h130zM255 350q0 35 25 59t60 24t60 -24t25 -59t-25 -59t-60 -24t-60 24t-25 59z" />
    <glyph glyph-name="Lslash" unicode="&#x141;" horiz-adv-x="545" 
d="M85 0v266l-110 -64v132l110 64v302h135v-224l140 81v-132l-140 -81v-224h295v-120h-430z" />
    <glyph glyph-name="lslash" unicode="&#x142;" horiz-adv-x="280" 
d="M205 710v-237l110 64v-132l-110 -64v-341h-130v266l-110 -64v132l110 64v312h130z" />
    <glyph glyph-name="Nacute" unicode="&#x143;" horiz-adv-x="780" 
d="M80 0v700h95l390 -456v456h135v-700h-95l-390 456v-456h-135zM405 920h140l-120 -160h-90z" />
    <glyph glyph-name="nacute" unicode="&#x144;" horiz-adv-x="620" 
d="M335 720h140l-120 -160h-90zM205 0h-130v485h125v-39q60 49 137 49q103 0 168 -78q50 -59 50 -170v-247h-130v257q0 62 -29 91q-27 27 -73 27q-37 0 -69.5 -18.5t-48.5 -41.5v-315z" />
    <glyph glyph-name="Ncommaaccent" unicode="&#x145;" horiz-adv-x="780" 
d="M80 0v700h95l390 -456v456h135v-700h-95l-390 456v-456h-135zM332 -60h140l-120 -160h-90z" />
    <glyph glyph-name="ncommaaccent" unicode="&#x146;" horiz-adv-x="620" 
d="M242 -60h140l-120 -160h-90zM205 0h-130v485h125v-39q60 49 137 49q103 0 168 -78q50 -59 50 -170v-247h-130v257q0 62 -29 91q-27 27 -73 27q-37 0 -69.5 -18.5t-48.5 -41.5v-315z" />
    <glyph glyph-name="Ncaron" unicode="&#x147;" horiz-adv-x="780" 
d="M80 0v700h95l390 -456v456h135v-700h-95l-390 456v-456h-135zM460 760h-140l-100 160h90l80 -90l80 90h90z" />
    <glyph glyph-name="ncaron" unicode="&#x148;" horiz-adv-x="620" 
d="M390 560h-140l-100 160h90l80 -90l80 90h90zM205 0h-130v485h125v-39q60 49 137 49q103 0 168 -78q50 -59 50 -170v-247h-130v257q0 62 -29 91q-27 27 -73 27q-37 0 -69.5 -18.5t-48.5 -41.5v-315z" />
    <glyph glyph-name="napostrophe" unicode="&#x149;" horiz-adv-x="620" 
d="M145 700h140l-120 -160h-90zM205 0h-130v485h125v-39q60 49 137 49q103 0 168 -78q50 -59 50 -170v-247h-130v257q0 62 -29 91q-27 27 -73 27q-37 0 -69.5 -18.5t-48.5 -41.5v-315z" />
    <glyph glyph-name="Eng" unicode="&#x14a;" horiz-adv-x="780" 
d="M80 0v700h95l390 -456v456h135v-720q0 -83 -22 -124q-27 -50 -78.5 -78t-112.5 -28q-68 0 -120.5 33t-76.5 90l116 58q24 -61 82 -61q39 0 61 28q16 21 16 67v82l-350 409v-456h-135z" />
    <glyph glyph-name="eng" unicode="&#x14b;" horiz-adv-x="620" 
d="M205 0h-130v485h125v-39q60 49 137 49q103 0 168 -78q50 -59 50 -170v-272q0 -104 -43 -155q-59 -70 -157 -70q-72 0 -120 27l51 102q28 -14 58 -14q45 0 66 26q15 18 15 59v307q0 62 -29 91q-27 27 -73 27q-37 0 -69.5 -18.5t-48.5 -41.5v-315z" />
    <glyph glyph-name="Omacron" unicode="&#x14c;" horiz-adv-x="790" 
d="M165 350q0 -100 66 -170t164 -70t164 70t66 170t-66 170t-164 70t-164 -70t-66 -170zM30 350q0 152 102.5 256t262.5 104t262.5 -104t102.5 -256t-102.5 -256t-262.5 -104t-262.5 104t-102.5 256zM235 890h320v-100h-320v100z" />
    <glyph glyph-name="omacron" unicode="&#x14d;" horiz-adv-x="586" 
d="M35 242q0 106 74 179.5t184 73.5t184 -73.5t74 -179.5t-74 -179t-184 -73t-184 73t-74 179zM165 242q0 -56 36 -94t92 -38t92 38t36 94t-36 94.5t-92 38.5t-92 -38.5t-36 -94.5zM133 690h320v-100h-320v100z" />
    <glyph glyph-name="Obreve" unicode="&#x14e;" horiz-adv-x="790" 
d="M165 350q0 -100 66 -170t164 -70t164 70t66 170t-66 170t-164 70t-164 -70t-66 -170zM30 350q0 152 102.5 256t262.5 104t262.5 -104t102.5 -256t-102.5 -256t-262.5 -104t-262.5 104t-102.5 256zM440 920h105q0 -62 -44 -106t-106 -44t-106 44t-44 106h105q0 -19 13 -32
t32 -13t32 13t13 32z" />
    <glyph glyph-name="obreve" unicode="&#x14f;" horiz-adv-x="586" 
d="M35 242q0 106 74 179.5t184 73.5t184 -73.5t74 -179.5t-74 -179t-184 -73t-184 73t-74 179zM165 242q0 -56 36 -94t92 -38t92 38t36 94t-36 94.5t-92 38.5t-92 -38.5t-36 -94.5zM338 720h105q0 -62 -44 -106t-106 -44t-106 44t-44 106h105q0 -19 13 -32t32 -13t32 13
t13 32z" />
    <glyph glyph-name="Ohungarumlaut" unicode="&#x150;" horiz-adv-x="790" 
d="M165 350q0 -100 66 -170t164 -70t164 70t66 170t-66 170t-164 70t-164 -70t-66 -170zM30 350q0 152 102.5 256t262.5 104t262.5 -104t102.5 -256t-102.5 -256t-262.5 -104t-262.5 104t-102.5 256zM310 925h140l-120 -160h-90zM530 925h140l-120 -160h-90z" />
    <glyph glyph-name="ohungarumlaut" unicode="&#x151;" horiz-adv-x="586" 
d="M35 242q0 106 74 179.5t184 73.5t184 -73.5t74 -179.5t-74 -179t-184 -73t-184 73t-74 179zM165 242q0 -56 36 -94t92 -38t92 38t36 94t-36 94.5t-92 38.5t-92 -38.5t-36 -94.5zM208 720h140l-120 -160h-90zM428 720h140l-120 -160h-90z" />
    <glyph glyph-name="OE" unicode="&#x152;" horiz-adv-x="1095" 
d="M1045 580h-285v-145h225v-120h-225v-195h295v-120h-430v69q-96 -79 -230 -79q-157 0 -261 104.5t-104 255.5t104 255.5t261 104.5q132 0 230 -79v69h420v-120zM165 350q0 -100 66 -170t164 -70t164 70t66 170t-66 170t-164 70t-164 -70t-66 -170z" />
    <glyph glyph-name="oe" unicode="&#x153;" horiz-adv-x="921" 
d="M800 151l74 -74q-35 -41 -88.5 -64t-110.5 -23q-125 0 -192 86q-74 -86 -190 -86q-110 0 -184 73t-74 179t74 179.5t184 73.5q116 0 189 -86q63 86 175 86q99 0 164 -72.5t65 -175.5q0 -21 -3 -37h-336q5 -51 42 -83t89 -32q70 0 122 56zM165 242q0 -56 36 -94t92 -38
t92 38t36 94t-36 94.5t-92 38.5t-92 -38.5t-36 -94.5zM553 305h200q-3 34 -30.5 59.5t-65.5 25.5q-39 0 -69 -25.5t-35 -59.5z" />
    <glyph glyph-name="Racute" unicode="&#x154;" horiz-adv-x="670" 
d="M264 310h-49v-310h-135v700h255q96 0 153 -52q62 -59 62 -143t-62 -143q-30 -28 -70 -41l262 -321h-167zM215 430h112q49 0 68 21q20 22 20 53q0 32 -20 54t-68 22h-112v-150zM290 920h140l-120 -160h-90z" />
    <glyph glyph-name="racute" unicode="&#x155;" horiz-adv-x="410" 
d="M260 720h140l-120 -160h-90zM385 491l-15 -121q-15 5 -47 5q-39 0 -71.5 -22t-46.5 -48v-305h-130v485h125v-49q48 59 141 59q16 0 44 -4z" />
    <glyph glyph-name="Rcommaaccent" unicode="&#x156;" horiz-adv-x="670" 
d="M264 310h-49v-310h-135v700h255q96 0 153 -52q62 -59 62 -143t-62 -143q-30 -28 -70 -41l262 -321h-167zM215 430h112q49 0 68 21q20 22 20 53q0 32 -20 54t-68 22h-112v-150zM282 -60h140l-120 -160h-90z" />
    <glyph glyph-name="rcommaaccent" unicode="&#x157;" horiz-adv-x="410" 
d="M75 -60h140l-120 -160h-90zM385 491l-15 -121q-15 5 -47 5q-39 0 -71.5 -22t-46.5 -48v-305h-130v485h125v-49q48 59 141 59q16 0 44 -4z" />
    <glyph glyph-name="Rcaron" unicode="&#x158;" horiz-adv-x="670" 
d="M264 310h-49v-310h-135v700h255q96 0 153 -52q62 -59 62 -143t-62 -143q-30 -28 -70 -41l262 -321h-167zM215 430h112q49 0 68 21q20 22 20 53q0 32 -20 54t-68 22h-112v-150zM375 759h-140l-100 160h90l80 -90l80 90h90z" />
    <glyph glyph-name="rcaron" unicode="&#x159;" horiz-adv-x="410" 
d="M315 560h-140l-100 160h90l80 -90l80 90h90zM385 491l-15 -121q-15 5 -47 5q-39 0 -71.5 -22t-46.5 -48v-305h-130v485h125v-49q48 59 141 59q16 0 44 -4z" />
    <glyph glyph-name="Sacute" unicode="&#x15a;" horiz-adv-x="535" 
d="M292 920h140l-120 -160h-90zM10 95l88 92q70 -77 165 -77q45 0 73.5 25t28.5 63q0 40 -32 64.5t-97.5 49.5t-94.5 42q-99 58 -99 159q0 89 69 143t162 54q114 0 203 -66l-70 -100q-50 46 -121 46q-43 0 -75.5 -19t-32.5 -57q0 -30 33.5 -52.5t80.5 -40t94.5 -40.5t81 -69
t33.5 -112q0 -91 -70 -150.5t-167 -59.5q-138 0 -253 105z" />
    <glyph glyph-name="sacute" unicode="&#x15b;" horiz-adv-x="460" 
d="M27 55l63 93q53 -48 133 -48q26 0 44 11.5t18 29.5q0 20 -24 34t-58.5 25t-69.5 25.5t-59 45t-24 73.5q0 67 55.5 109t130.5 42q45 0 92 -14.5t72 -34.5l-61 -94q-46 33 -93 33q-28 0 -47 -10.5t-19 -28.5q0 -17 24 -29t59 -23t69.5 -26.5t58.5 -48t24 -79.5
q0 -67 -56.5 -108.5t-136.5 -41.5q-107 0 -195 65zM235 720h140l-120 -160h-90z" />
    <glyph glyph-name="Scircumflex" unicode="&#x15c;" horiz-adv-x="535" 
d="M200 920h140l100 -160h-90l-80 90l-80 -90h-90zM10 95l88 92q70 -77 165 -77q45 0 73.5 25t28.5 63q0 40 -32 64.5t-97.5 49.5t-94.5 42q-99 58 -99 159q0 89 69 143t162 54q114 0 203 -66l-70 -100q-50 46 -121 46q-43 0 -75.5 -19t-32.5 -57q0 -30 33.5 -52.5t80.5 -40
t94.5 -40.5t81 -69t33.5 -112q0 -91 -70 -150.5t-167 -59.5q-138 0 -253 105z" />
    <glyph glyph-name="scircumflex" unicode="&#x15d;" horiz-adv-x="460" 
d="M27 55l63 93q53 -48 133 -48q26 0 44 11.5t18 29.5q0 20 -24 34t-58.5 25t-69.5 25.5t-59 45t-24 73.5q0 67 55.5 109t130.5 42q45 0 92 -14.5t72 -34.5l-61 -94q-46 33 -93 33q-28 0 -47 -10.5t-19 -28.5q0 -17 24 -29t59 -23t69.5 -26.5t58.5 -48t24 -79.5
q0 -67 -56.5 -108.5t-136.5 -41.5q-107 0 -195 65zM161 720h140l100 -160h-90l-80 90l-80 -90h-90z" />
    <glyph glyph-name="Scedilla" unicode="&#x15e;" horiz-adv-x="535" 
d="M10 95l88 92q70 -77 165 -77q45 0 73.5 25t28.5 63q0 40 -32 64.5t-97.5 49.5t-94.5 42q-99 58 -99 159q0 89 69 143t162 54q114 0 203 -66l-70 -100q-50 46 -121 46q-43 0 -75.5 -19t-32.5 -57q0 -30 33.5 -52.5t80.5 -40t94.5 -40.5t81 -69t33.5 -112q0 -79 -54 -135
t-135 -70l-26 -145h-130l59 144q-112 15 -204 101z" />
    <glyph glyph-name="scedilla" unicode="&#x15f;" horiz-adv-x="460" 
d="M130 -150l57 142q-91 11 -160 63l63 93q53 -48 133 -48q26 0 44 11.5t18 29.5q0 20 -24 34t-58.5 25t-69.5 25.5t-59 45t-24 73.5q0 67 55.5 109t130.5 42q45 0 92 -14.5t72 -34.5l-61 -94q-46 33 -93 33q-28 0 -47 -10.5t-19 -28.5q0 -17 24 -29t59 -23t69.5 -26.5
t58.5 -48t24 -79.5q0 -52 -35.5 -89.5t-91.5 -51.5l-28 -149h-130z" />
    <glyph glyph-name="Scaron" unicode="&#x160;" horiz-adv-x="535" 
d="M335 760h-140l-100 160h90l80 -90l80 90h90zM10 95l88 92q70 -77 165 -77q45 0 73.5 25t28.5 63q0 40 -32 64.5t-97.5 49.5t-94.5 42q-99 58 -99 159q0 89 69 143t162 54q114 0 203 -66l-70 -100q-50 46 -121 46q-43 0 -75.5 -19t-32.5 -57q0 -30 33.5 -52.5t80.5 -40
t94.5 -40.5t81 -69t33.5 -112q0 -91 -70 -150.5t-167 -59.5q-138 0 -253 105z" />
    <glyph glyph-name="scaron" unicode="&#x161;" horiz-adv-x="460" 
d="M300 560h-140l-100 160h90l80 -90l80 90h90zM27 55l63 93q53 -48 133 -48q26 0 44 11.5t18 29.5q0 20 -24 34t-58.5 25t-69.5 25.5t-59 45t-24 73.5q0 67 55.5 109t130.5 42q45 0 92 -14.5t72 -34.5l-61 -94q-46 33 -93 33q-28 0 -47 -10.5t-19 -28.5q0 -17 24 -29
t59 -23t69.5 -26.5t58.5 -48t24 -79.5q0 -67 -56.5 -108.5t-136.5 -41.5q-107 0 -195 65z" />
    <glyph glyph-name="Tcommaaccent" unicode="&#x162;" horiz-adv-x="555" 
d="M25 700h505v-120h-185v-580h-135v580h-185v120zM210 -60h140l-120 -160h-90z" />
    <glyph glyph-name="tcommaaccent" unicode="&#x163;" horiz-adv-x="495" 
d="M260 -60h140l-120 -160h-90zM420 110l20 -110q-28 -10 -81 -10q-116 0 -168 70q-36 48 -36 145v170h-135v110h135v135h130v-135h160v-110h-160v-185q0 -42 16 -61q21 -24 66 -24q31 0 53 5z" />
    <glyph glyph-name="Tcaron" unicode="&#x164;" horiz-adv-x="555" 
d="M25 700h505v-120h-185v-580h-135v580h-185v120zM347 760h-140l-100 160h90l80 -90l80 90h90z" />
    <glyph glyph-name="tcaron" unicode="&#x165;" horiz-adv-x="495" 
d="M395 700h140l-120 -160h-90zM420 110l20 -110q-28 -10 -81 -10q-116 0 -168 70q-36 48 -36 145v170h-135v110h135v135h130v-135h160v-110h-160v-185q0 -42 16 -61q21 -24 66 -24q31 0 53 5z" />
    <glyph glyph-name="Tbar" unicode="&#x166;" horiz-adv-x="555" 
d="M485 315h-140v-315h-135v315h-140v120h140v145h-185v120h505v-120h-185v-145h140v-120z" />
    <glyph glyph-name="tbar" unicode="&#x167;" horiz-adv-x="495" 
d="M420 110l20 -110q-28 -10 -81 -10q-116 0 -168 70q-35 45 -36 135h-135v110h135v70h-135v110h135v135h130v-135h160v-110h-160v-70h160v-110h-160v-5q0 -42 16 -61q21 -24 66 -24q31 0 53 5z" />
    <glyph glyph-name="Utilde" unicode="&#x168;" horiz-adv-x="750" 
d="M375 -10q-129 0 -210 72q-90 81 -90 233v405h135v-415q0 -87 46 -130q47 -45 119 -45t119 45q46 43 46 130v415h135v-405q0 -152 -90 -233q-81 -72 -210 -72zM485 920l80 -16q0 -57 -29.5 -95.5t-81.5 -38.5q-32 0 -81 25t-68 25q-35 0 -40 -50l-80 16q0 57 29.5 95.5
t81.5 38.5q32 0 81 -25t68 -25q35 0 40 50z" />
    <glyph glyph-name="utilde" unicode="&#x169;" horiz-adv-x="610" 
d="M405 485h130v-485h-125v39q-55 -49 -131 -49q-102 0 -165 78q-49 60 -49 160v257h130v-262q0 -56 24 -83q27 -30 73 -30q66 0 113 60v315zM415 720l80 -16q0 -57 -29.5 -95.5t-81.5 -38.5q-32 0 -81 25t-68 25q-35 0 -40 -50l-80 16q0 57 29.5 95.5t81.5 38.5
q32 0 81 -25t68 -25q35 0 40 50z" />
    <glyph glyph-name="Umacron" unicode="&#x16a;" horiz-adv-x="750" 
d="M375 -10q-129 0 -210 72q-90 81 -90 233v405h135v-415q0 -87 46 -130q47 -45 119 -45t119 45q46 43 46 130v415h135v-405q0 -152 -90 -233q-81 -72 -210 -72zM215 890h320v-100h-320v100z" />
    <glyph glyph-name="umacron" unicode="&#x16b;" horiz-adv-x="610" 
d="M145 690h320v-100h-320v100zM405 485h130v-485h-125v39q-55 -49 -131 -49q-102 0 -165 78q-49 60 -49 160v257h130v-262q0 -56 24 -83q27 -30 73 -30q66 0 113 60v315z" />
    <glyph glyph-name="Ubreve" unicode="&#x16c;" horiz-adv-x="750" 
d="M375 -10q-129 0 -210 72q-90 81 -90 233v405h135v-415q0 -87 46 -130q47 -45 119 -45t119 45q46 43 46 130v415h135v-405q0 -152 -90 -233q-81 -72 -210 -72zM420 920h105q0 -62 -44 -106t-106 -44t-106 44t-44 106h105q0 -19 13 -32t32 -13t32 13t13 32z" />
    <glyph glyph-name="ubreve" unicode="&#x16d;" horiz-adv-x="610" 
d="M350 720h105q0 -62 -44 -106t-106 -44t-106 44t-44 106h105q0 -19 13 -32t32 -13t32 13t13 32zM405 485h130v-485h-125v39q-55 -49 -131 -49q-102 0 -165 78q-49 60 -49 160v257h130v-262q0 -56 24 -83q27 -30 73 -30q66 0 113 60v315z" />
    <glyph glyph-name="Uring" unicode="&#x16e;" horiz-adv-x="750" 
d="M375 -10q-129 0 -210 72q-90 81 -90 233v405h135v-415q0 -87 46 -130q47 -45 119 -45t119 45q46 43 46 130v415h135v-405q0 -152 -90 -233q-81 -72 -210 -72zM265 850q0 46 32 78t78 32t78 -32t32 -78t-32 -78t-78 -32t-78 32t-32 78zM345 850q0 -13 8.5 -21.5t21.5 -8.5
t21.5 8.5t8.5 21.5t-8.5 21.5t-21.5 8.5t-21.5 -8.5t-8.5 -21.5z" />
    <glyph glyph-name="uring" unicode="&#x16f;" horiz-adv-x="610" 
d="M195 650q0 46 32 78t78 32t78 -32t32 -78t-32 -78t-78 -32t-78 32t-32 78zM275 650q0 -13 8.5 -21.5t21.5 -8.5t21.5 8.5t8.5 21.5t-8.5 21.5t-21.5 8.5t-21.5 -8.5t-8.5 -21.5zM405 485h130v-485h-125v39q-55 -49 -131 -49q-102 0 -165 78q-49 60 -49 160v257h130v-262
q0 -56 24 -83q27 -30 73 -30q66 0 113 60v315z" />
    <glyph glyph-name="Uhungarumlaut" unicode="&#x170;" horiz-adv-x="750" 
d="M375 -10q-129 0 -210 72q-90 81 -90 233v405h135v-415q0 -87 46 -130q47 -45 119 -45t119 45q46 43 46 130v415h135v-405q0 -152 -90 -233q-81 -72 -210 -72zM290 935h140l-120 -160h-90zM510 935h140l-120 -160h-90z" />
    <glyph glyph-name="uhungarumlaut" unicode="&#x171;" horiz-adv-x="610" 
d="M220 720h140l-120 -160h-90zM440 720h140l-120 -160h-90zM405 485h130v-485h-125v39q-55 -49 -131 -49q-102 0 -165 78q-49 60 -49 160v257h130v-262q0 -56 24 -83q27 -30 73 -30q66 0 113 60v315z" />
    <glyph glyph-name="Uogonek" unicode="&#x172;" horiz-adv-x="750" 
d="M585 62q-40 -35 -92 -53q-32 -38 -32 -72q0 -18 11 -30t29 -12q13 0 25 4l15 -109q-20 -10 -65 -10q-61 0 -98 34.5t-37 85.5q0 49 24 90q-122 3 -200 72q-90 81 -90 233v405h135v-415q0 -87 46 -130q47 -45 119 -45t119 45q46 43 46 130v415h135v-405q0 -152 -90 -233z
" />
    <glyph glyph-name="uogonek" unicode="&#x173;" horiz-adv-x="610" 
d="M405 485h130v-485q-26 -38 -26 -63q0 -18 11 -30t29 -12q13 0 25 4l15 -109q-20 -10 -65 -10q-61 0 -98 34.5t-37 85.5q0 42 21 93v46q-55 -49 -131 -49q-102 0 -165 78q-49 60 -49 160v257h130v-262q0 -56 24 -83q27 -30 73 -30q66 0 113 60v315z" />
    <glyph glyph-name="Wcircumflex" unicode="&#x174;" horiz-adv-x="985" 
d="M242 0l-232 700h136l145 -437l154 437h95l154 -437l145 437h136l-232 -700h-95l-156 443l-155 -443h-95zM422 920h140l100 -160h-90l-80 90l-80 -90h-90z" />
    <glyph glyph-name="wcircumflex" unicode="&#x175;" horiz-adv-x="852" 
d="M426 282l-122 -282h-90l-204 485h131l118 -283l122 283h90l121 -283l119 283h131l-204 -485h-90zM356 720h140l100 -160h-90l-80 90l-80 -90h-90z" />
    <glyph glyph-name="Ycircumflex" unicode="&#x176;" horiz-adv-x="625" 
d="M620 700l-240 -383v-317h-135v317l-240 383h154l154 -246l153 246h154zM242 920h140l100 -160h-90l-80 90l-80 -90h-90z" />
    <glyph glyph-name="ycircumflex" unicode="&#x177;" horiz-adv-x="573" 
d="M229 -240h-136l134 289l-217 436h143l142 -291l131 291h137zM216 720h140l100 -160h-90l-80 90l-80 -90h-90z" />
    <glyph glyph-name="Ydieresis" unicode="&#x178;" horiz-adv-x="625" 
d="M620 700l-240 -383v-317h-135v317l-240 383h154l154 -246l153 246h154zM128 842q0 33 23.5 55.5t56.5 22.5t56.5 -22.5t23.5 -55.5t-23.5 -55.5t-56.5 -22.5t-56.5 22.5t-23.5 55.5zM338 842q0 33 23.5 55.5t56.5 22.5t56.5 -22.5t23.5 -55.5t-23.5 -55.5t-56.5 -22.5
t-56.5 22.5t-23.5 55.5z" />
    <glyph glyph-name="Zacute" unicode="&#x179;" horiz-adv-x="615" 
d="M40 0v80l340 500h-310v120h490v-80l-341 -500h361v-120h-540zM332 920h140l-120 -160h-90z" />
    <glyph glyph-name="zacute" unicode="&#x17a;" horiz-adv-x="530" 
d="M460 485v-80l-235 -295h255v-110h-430v80l232 295h-212v110h390zM291 720h140l-120 -160h-90z" />
    <glyph glyph-name="Zdotaccent" unicode="&#x17b;" horiz-adv-x="615" 
d="M40 0v80l340 500h-310v120h490v-80l-341 -500h361v-120h-540zM232 857q0 35 25 59t60 24t60 -24t25 -59t-25 -59t-60 -24t-60 24t-25 59z" />
    <glyph glyph-name="zdotaccent" unicode="&#x17c;" horiz-adv-x="530" 
d="M460 485v-80l-235 -295h255v-110h-430v80l232 295h-212v110h390zM190 657q0 35 25 59t60 24t60 -24t25 -59t-25 -59t-60 -24t-60 24t-25 59z" />
    <glyph glyph-name="Zcaron" unicode="&#x17d;" horiz-adv-x="615" 
d="M40 0v80l340 500h-310v120h490v-80l-341 -500h361v-120h-540zM380 760h-140l-100 160h90l80 -90l80 90h90z" />
    <glyph glyph-name="zcaron" unicode="&#x17e;" horiz-adv-x="530" 
d="M335 560h-140l-100 160h90l80 -90l80 90h90zM460 485v-80l-235 -295h255v-110h-430v80l232 295h-212v110h390z" />
    <glyph glyph-name="longs" unicode="&#x17f;" horiz-adv-x="411" 
d="M205 520v-520h-130v505q0 111 59 167q61 58 162 58q61 0 110 -26l-46 -104q-32 15 -64 15q-46 0 -69 -26q-22 -24 -22 -69z" />
    <glyph glyph-name="uni018F" unicode="&#x18f;" horiz-adv-x="722" 
d="M546 277h-373q10 -66 60.5 -116.5t122.5 -50.5q75 0 128 50t62 117zM129 496l-82 90q54 58 131 91t158 33q155 0 255.5 -99.5t100.5 -259.5q0 -150 -92.5 -255t-243.5 -105q-143 0 -234.5 103t-91.5 250q0 32 4 53h520q-9 84 -70.5 138.5t-146.5 54.5q-63 0 -118 -28
t-90 -66z" />
    <glyph glyph-name="florin" unicode="&#x192;" horiz-adv-x="536" 
d="M-83 -229l33 108q36 -14 66 -14q91 0 120 93q6 19 11.5 45.5t9.5 48t9.5 59.5t7.5 57t7.5 66t7.5 61h-160v110h174q15 99 27 138q54 177 243 177q52 0 99 -21l-33 -108q-36 14 -66 14q-91 0 -120 -93q-12 -35 -24 -107h170v-110h-186q-4 -30 -12 -100.5t-12.5 -108
t-13 -84.5t-16.5 -75q-54 -177 -243 -177q-52 0 -99 21z" />
    <glyph glyph-name="uni01B5" unicode="&#x1b5;" horiz-adv-x="615" 
d="M100 435h181l99 145h-310v120h490v-80l-126 -185h96v-120h-178l-133 -195h361v-120h-540v80l160 235h-100v120z" />
    <glyph glyph-name="uni01B6" unicode="&#x1b6;" horiz-adv-x="530" 
d="M440 195h-148l-67 -85h255v-110h-430v80l90 115h-50v110h137l55 70h-212v110h390v-80l-80 -100h60v-110z" />
    <glyph glyph-name="Aringacute" unicode="&#x1fa;" horiz-adv-x="695" 
d="M237 850q0 46 32 78t78 32t78 -32t32 -78t-32 -78t-78 -32t-78 32t-32 78zM317 850q0 -13 8.5 -21.5t21.5 -8.5t21.5 8.5t8.5 21.5t-8.5 21.5t-21.5 8.5t-21.5 -8.5t-8.5 -21.5zM372 1160h140l-120 -160h-90zM141 0h-141l300 700h95l300 -700h-141l-66 155h-281zM347 482
l-89 -207h178z" />
    <glyph glyph-name="aringacute" unicode="&#x1fb;" horiz-adv-x="615" 
d="M215 650q0 46 32 78t78 32t78 -32t32 -78t-32 -78t-78 -32t-78 32t-32 78zM295 650q0 -13 8.5 -21.5t21.5 -8.5t21.5 8.5t8.5 21.5t-8.5 21.5t-21.5 8.5t-21.5 -8.5t-8.5 -21.5zM350 960h140l-120 -160h-90zM410 170v145q-45 60 -120 60q-55 0 -90 -39.5t-35 -93.5
q0 -57 36.5 -94.5t91.5 -37.5q75 0 117 60zM540 485v-485h-125v39q-58 -49 -135 -49q-112 0 -183 82q-62 72 -62 170q0 107 69.5 180t168.5 73q82 0 142 -49v39h125z" />
    <glyph glyph-name="AEacute" unicode="&#x1fc;" horiz-adv-x="960" 
d="M505 920h140l-120 -160h-90zM910 580h-285v-145h225v-120h-225v-195h295v-120h-430v155h-256l-93 -155h-151l421 700h499v-120zM306 275h184v306z" />
    <glyph glyph-name="aeacute" unicode="&#x1fd;" horiz-adv-x="921" 
d="M495 720h140l-120 -160h-90zM800 151l74 -74q-35 -41 -88.5 -64t-110.5 -23q-37 0 -77.5 13.5t-67.5 35.5v-39h-115v39q-58 -49 -135 -49q-112 0 -183 82q-62 72 -62 170q0 107 69.5 180t168.5 73q82 0 142 -49v39h115v-39q51 49 124 49q96 0 164 -72.5t68 -175.5
q0 -21 -3 -37h-346q5 -50 44 -82.5t92 -32.5q38 0 72.5 17t54.5 39zM410 170v145q-45 60 -120 60q-55 0 -90 -39.5t-35 -93.5q0 -57 36.5 -94.5t91.5 -37.5q75 0 117 60zM543 305h210q-5 36 -35 60.5t-68 24.5t-68.5 -23.5t-38.5 -61.5z" />
    <glyph glyph-name="Oslashacute" unicode="&#x1fe;" horiz-adv-x="790" 
d="M420 920h140l-120 -160h-90zM30 350q0 152 102.5 256t262.5 104q100 0 184 -46l37 46h164l-104 -125q84 -100 84 -235q0 -152 -102.5 -256t-262.5 -104q-101 0 -185 46l-38 -46h-163l105 124q-84 98 -84 236zM625 350q0 71 -37 132l-295 -348q48 -24 102 -24q98 0 164 70
t66 170zM165 350q0 -73 36 -132l295 348q-48 24 -101 24q-98 0 -164 -70t-66 -170z" />
    <glyph glyph-name="oslashacute" unicode="&#x1ff;" horiz-adv-x="586" 
d="M318 720h140l-120 -160h-90zM437 495h143l-82 -98q53 -69 53 -155q0 -106 -74 -179t-184 -73q-67 0 -121 28l-23 -28h-143l81 98q-52 66 -52 154q0 106 74 179.5t184 73.5q65 0 121 -28zM421 242q0 27 -9 51l-151 -180q15 -3 32 -3q56 0 92 38t36 94zM165 242
q0 -27 9 -50l150 179q-13 4 -31 4q-56 0 -92 -38.5t-36 -94.5z" />
    <glyph glyph-name="Scommaaccent" unicode="&#x218;" horiz-adv-x="535" 
d="M15 100l90 90q67 -80 154 -80q46 0 76 26t30 66q0 18 -7.5 33t-17.5 25.5t-30.5 22t-34.5 17.5t-41.5 17.5t-40.5 17.5q-70 31 -109 70.5t-39 108.5q0 87 64 141.5t158 54.5q106 0 195 -70l-83 -96q-44 46 -106 46q-39 0 -66 -20t-27 -54q0 -16 7 -28.5t24 -23t30.5 -17
t41 -17t41.5 -16.5q38 -17 64 -32.5t54.5 -40.5t43 -60t14.5 -79q0 -92 -70 -152t-172 -60q-143 0 -243 110zM200 -60h140l-120 -160h-90z" />
    <glyph glyph-name="scommaaccent" unicode="&#x219;" horiz-adv-x="460" 
d="M27 55l63 93q53 -48 133 -48q26 0 44 11.5t18 29.5q0 20 -24 34t-58.5 25t-69.5 25.5t-59 45t-24 73.5q0 67 55.5 109t130.5 42q45 0 92 -14.5t72 -34.5l-61 -94q-46 33 -93 33q-28 0 -47 -10.5t-19 -28.5q0 -17 24 -29t59 -23t69.5 -26.5t58.5 -48t24 -79.5
q0 -67 -56.5 -108.5t-136.5 -41.5q-107 0 -195 65zM160 -60h140l-120 -160h-90z" />
    <glyph glyph-name="uni021A" unicode="&#x21a;" horiz-adv-x="555" 
d="M25 700h505v-120h-185v-580h-135v580h-185v120zM210 -60h140l-120 -160h-90z" />
    <glyph glyph-name="uni021B" unicode="&#x21b;" horiz-adv-x="495" 
d="M260 -60h140l-120 -160h-90zM420 110l20 -110q-28 -10 -81 -10q-116 0 -168 70q-36 48 -36 145v170h-135v110h135v135h130v-135h160v-110h-160v-185q0 -42 16 -61q21 -24 66 -24q31 0 53 5z" />
    <glyph glyph-name="uni0237" unicode="&#x237;" horiz-adv-x="320" 
d="M-20 -243l20 118q15 -5 34 -5q41 0 62 22q19 20 19 83v510h130v-510q0 -103 -35 -153q-51 -72 -165 -72q-32 0 -65 7z" />
    <glyph glyph-name="uni0259" unicode="&#x259;" horiz-adv-x="535" 
d="M121 335l-74 74q35 41 88.5 64t110.5 23q110 0 182 -69.5t72 -182.5q0 -105 -65.5 -179t-170.5 -74q-99 0 -164 72.5t-65 175.5q0 21 3 37h336q-5 51 -42 83t-89 32q-70 0 -122 -56zM368 181h-200q3 -34 30.5 -59.5t65.5 -25.5q39 0 69 25.5t35 59.5z" />
    <glyph glyph-name="circumflex" unicode="&#x2c6;" horiz-adv-x="480" 
d="M170 720h140l100 -160h-90l-80 90l-80 -90h-90z" />
    <glyph glyph-name="caron" unicode="&#x2c7;" horiz-adv-x="480" 
d="M310 560h-140l-100 160h90l80 -90l80 90h90z" />
    <glyph glyph-name="uni02C9" unicode="&#x2c9;" horiz-adv-x="500" 
d="M70 690h320v-100h-320v100z" />
    <glyph glyph-name="breve" unicode="&#x2d8;" horiz-adv-x="440" 
d="M265 720h105q0 -62 -44 -106t-106 -44t-106 44t-44 106h105q0 -19 13 -32t32 -13t32 13t13 32z" />
    <glyph glyph-name="dotaccent" unicode="&#x2d9;" horiz-adv-x="310" 
d="M70 657q0 35 25 59t60 24t60 -24t25 -59t-25 -59t-60 -24t-60 24t-25 59z" />
    <glyph glyph-name="ring" unicode="&#x2da;" horiz-adv-x="360" 
d="M70 650q0 46 32 78t78 32t78 -32t32 -78t-32 -78t-78 -32t-78 32t-32 78zM150 650q0 -13 8.5 -21.5t21.5 -8.5t21.5 8.5t8.5 21.5t-8.5 21.5t-21.5 8.5t-21.5 -8.5t-8.5 -21.5z" />
    <glyph glyph-name="ogonek" unicode="&#x2db;" horiz-adv-x="340" 
d="M108 10h115q-33 -40 -33 -73q0 -18 11 -30t29 -12q13 0 25 4l15 -109q-20 -10 -65 -10q-61 0 -98 34.5t-37 85.5q0 57 38 110z" />
    <glyph glyph-name="tilde" unicode="&#x2dc;" horiz-adv-x="520" 
d="M370 720l80 -16q0 -57 -29.5 -95.5t-81.5 -38.5q-32 0 -81 25t-68 25q-35 0 -40 -50l-80 16q0 57 29.5 95.5t81.5 38.5q32 0 81 -25t68 -25q35 0 40 50z" />
    <glyph glyph-name="hungarumlaut" unicode="&#x2dd;" horiz-adv-x="570" 
d="M140 720h140l-120 -160h-90zM360 720h140l-120 -160h-90z" />
    <glyph glyph-name="uni0394" unicode="&#x394;" 
d="M10 70l240 630h90l240 -630v-70h-570v70zM295 510l-152 -400h304z" />
    <glyph glyph-name="uni03A9" unicode="&#x3a9;" horiz-adv-x="750" 
d="M375 590q-97 0 -158.5 -70.5t-61.5 -174.5q0 -159 143 -265v-80h-273v120h73q-73 97 -73 230q0 151 100.5 255.5t249.5 104.5t249.5 -104.5t100.5 -255.5q0 -133 -73 -230h73v-120h-273v80q143 106 143 265q0 104 -61.5 174.5t-158.5 70.5z" />
    <glyph glyph-name="uni03BC" unicode="&#x3bc;" horiz-adv-x="620" 
d="M415 485h130v-485h-125v39q-55 -49 -131 -49q-48 0 -84 22v-252h-130v725h130v-262q0 -56 24 -83q27 -30 73 -30q66 0 113 60v315z" />
    <glyph glyph-name="pi" unicode="&#x3c0;" horiz-adv-x="577" 
d="M128 0v359q-38 -5 -63 -36l-70 72q28 42 81 61q37 14 93 14h398v-110h-100v-207q0 -32 7 -49t27 -34l-85 -80q-42 32 -55.5 69t-13.5 102v199h-99v-360h-120z" />
    <glyph glyph-name="Wgrave" unicode="&#x1e80;" horiz-adv-x="985" 
d="M242 0l-232 700h136l145 -437l154 437h95l154 -437l145 437h136l-232 -700h-95l-156 443l-155 -443h-95zM326 920h140l70 -160h-90z" />
    <glyph glyph-name="wgrave" unicode="&#x1e81;" horiz-adv-x="852" 
d="M426 282l-122 -282h-90l-204 485h131l118 -283l122 283h90l121 -283l119 283h131l-204 -485h-90zM261 720h140l70 -160h-90z" />
    <glyph glyph-name="Wacute" unicode="&#x1e82;" horiz-adv-x="985" 
d="M242 0l-232 700h136l145 -437l154 437h95l154 -437l145 437h136l-232 -700h-95l-156 443l-155 -443h-95zM520 920h140l-120 -160h-90z" />
    <glyph glyph-name="wacute" unicode="&#x1e83;" horiz-adv-x="852" 
d="M426 282l-122 -282h-90l-204 485h131l118 -283l122 283h90l121 -283l119 283h131l-204 -485h-90zM451 720h140l-120 -160h-90z" />
    <glyph glyph-name="Wdieresis" unicode="&#x1e84;" horiz-adv-x="985" 
d="M242 0l-232 700h136l145 -437l154 437h95l154 -437l145 437h136l-232 -700h-95l-156 443l-155 -443h-95zM307 842q0 33 23.5 55.5t56.5 22.5t56.5 -22.5t23.5 -55.5t-23.5 -55.5t-56.5 -22.5t-56.5 22.5t-23.5 55.5zM517 842q0 33 23.5 55.5t56.5 22.5t56.5 -22.5
t23.5 -55.5t-23.5 -55.5t-56.5 -22.5t-56.5 22.5t-23.5 55.5z" />
    <glyph glyph-name="wdieresis" unicode="&#x1e85;" horiz-adv-x="852" 
d="M426 282l-122 -282h-90l-204 485h131l118 -283l122 283h90l121 -283l119 283h131l-204 -485h-90zM241 642q0 33 23.5 55.5t56.5 22.5t56.5 -22.5t23.5 -55.5t-23.5 -55.5t-56.5 -22.5t-56.5 22.5t-23.5 55.5zM451 642q0 33 23.5 55.5t56.5 22.5t56.5 -22.5t23.5 -55.5
t-23.5 -55.5t-56.5 -22.5t-56.5 22.5t-23.5 55.5z" />
    <glyph glyph-name="uni1E8A" unicode="&#x1e8a;" horiz-adv-x="680" 
d="M255 857q0 35 25 59t60 24t60 -24t25 -59t-25 -59t-60 -24t-60 24t-25 59zM635 700l-213 -327l243 -373h-155l-170 266l-170 -266h-155l242 373l-212 327h155l140 -221l140 221h155z" />
    <glyph glyph-name="uni1E8B" unicode="&#x1e8b;" horiz-adv-x="546" 
d="M177 485l96 -138l96 138h149l-163 -226l186 -259h-154l-114 164l-114 -164h-154l186 259l-163 226h149zM188 657q0 35 25 59t60 24t60 -24t25 -59t-25 -59t-60 -24t-60 24t-25 59z" />
    <glyph glyph-name="Ygrave" unicode="&#x1ef2;" horiz-adv-x="625" 
d="M620 700l-240 -383v-317h-135v317l-240 383h154l154 -246l153 246h154zM150 920h140l70 -160h-90z" />
    <glyph glyph-name="ygrave" unicode="&#x1ef3;" horiz-adv-x="573" 
d="M229 -240h-136l134 289l-217 436h143l142 -291l131 291h137zM130 720h140l70 -160h-90z" />
    <glyph glyph-name="endash" unicode="&#x2013;" horiz-adv-x="520" 
d="M15 315h490v-110h-490v110z" />
    <glyph glyph-name="emdash" unicode="&#x2014;" horiz-adv-x="820" 
d="M15 315h790v-110h-790v110z" />
    <glyph glyph-name="quoteleft" unicode="&#x2018;" horiz-adv-x="325" 
d="M190 405h-140l120 295h95z" />
    <glyph glyph-name="quoteright" unicode="&#x2019;" horiz-adv-x="325" 
d="M135 700h140l-120 -295h-95z" />
    <glyph glyph-name="quotesinglbase" unicode="&#x201a;" horiz-adv-x="325" 
d="M135 155h140l-120 -295h-95z" />
    <glyph glyph-name="quotedblleft" unicode="&#x201c;" horiz-adv-x="565" 
d="M430 405h-140l120 295h95zM190 405h-140l120 295h95z" />
    <glyph glyph-name="quotedblright" unicode="&#x201d;" horiz-adv-x="565" 
d="M135 700h140l-120 -295h-95zM375 700h140l-120 -295h-95z" />
    <glyph glyph-name="quotedblbase" unicode="&#x201e;" horiz-adv-x="565" 
d="M135 155h140l-120 -295h-95zM375 155h140l-120 -295h-95z" />
    <glyph glyph-name="dagger" unicode="&#x2020;" horiz-adv-x="550" 
d="M335 365v-565h-120v565h-170v110h170v225h120v-225h170v-110h-170z" />
    <glyph glyph-name="daggerdbl" unicode="&#x2021;" horiz-adv-x="550" 
d="M335 206h170v-110h-170v-296h-120v296h-170v110h170v159h-170v110h170v225h120v-225h170v-110h-170v-159z" />
    <glyph glyph-name="bullet" unicode="&#x2022;" horiz-adv-x="600" 
d="M80 242q0 91 64.5 155.5t155.5 64.5t155.5 -64.5t64.5 -155.5t-64.5 -155.5t-155.5 -64.5t-155.5 64.5t-64.5 155.5z" />
    <glyph glyph-name="ellipsis" unicode="&#x2026;" horiz-adv-x="995" 
d="M110 75q0 37 25 61.5t62 24.5t62.5 -24.5t25.5 -61.5q0 -36 -25.5 -60.5t-62.5 -24.5t-62 24t-25 61zM420 75q0 37 25 61.5t62 24.5t62.5 -24.5t25.5 -61.5q0 -36 -25.5 -60.5t-62.5 -24.5t-62 24t-25 61zM730 75q0 37 25 61.5t62 24.5t62.5 -24.5t25.5 -61.5
q0 -36 -25.5 -60.5t-62.5 -24.5t-62 24t-25 61z" />
    <glyph glyph-name="perthousand" unicode="&#x2030;" horiz-adv-x="1225" 
d="M535 175q0 77 55 131t135 54q74 0 130 -49q54 49 130 49q80 0 135 -54t55 -131t-55 -131t-135 -54q-78 0 -130 49q-54 -49 -130 -49q-80 0 -135 54t-55 131zM50 525q0 77 55 131t135 54t135 -54t55 -131t-55 -131t-135 -54t-135 54t-55 131zM310 525q0 32 -19.5 53.5
t-50.5 21.5t-50.5 -21.5t-19.5 -53.5t19.5 -53.5t50.5 -21.5t50.5 21.5t19.5 53.5zM795 175q0 32 -19.5 53.5t-50.5 21.5t-50.5 -21.5t-19.5 -53.5t19.5 -53.5t50.5 -21.5t50.5 21.5t19.5 53.5zM1055 175q0 32 -19.5 53.5t-50.5 21.5t-50.5 -21.5t-19.5 -53.5t19.5 -53.5
t50.5 -21.5t50.5 21.5t19.5 53.5zM335 0h-111l409 700h111z" />
    <glyph glyph-name="guilsinglleft" unicode="&#x2039;" horiz-adv-x="379" 
d="M196 437h143l-156 -190l156 -190h-143l-126 155v70z" />
    <glyph glyph-name="guilsinglright" unicode="&#x203a;" horiz-adv-x="379" 
d="M40 437h143l126 -155v-70l-126 -155h-143l156 190z" />
    <glyph glyph-name="fraction" unicode="&#x2044;" horiz-adv-x="530" 
d="M116 0h-111l409 700h111z" />
    <glyph glyph-name="uni2070" unicode="&#x2070;" horiz-adv-x="338" 
d="M130 520q0 -100 39 -100t39 100t-39 100t-39 -100zM30 520q0 83 33 136.5t106 53.5q139 0 139 -190t-139 -190q-73 0 -106 53.5t-33 136.5z" />
    <glyph glyph-name="uni2074" unicode="&#x2074;" horiz-adv-x="350" 
d="M264 700v-215h66v-75h-66v-70h-85v70h-159v50l184 240h60zM134 485h45v58z" />
    <glyph glyph-name="uni2075" unicode="&#x2075;" horiz-adv-x="294" 
d="M10 382l66 54q20 -26 51 -26q21 0 35 13.5t14 34.5t-15 34.5t-36 13.5q-19 0 -36 -11l-54 8l19 197h190v-80h-110l-3 -35h7q62 0 96.5 -38.5t34.5 -88.5q0 -57 -39.5 -92.5t-101.5 -35.5q-76 0 -118 52z" />
    <glyph glyph-name="uni2076" unicode="&#x2076;" horiz-adv-x="330" 
d="M210 459q0 19 -12 31.5t-32 12.5q-19 0 -34 -11q-12 -15 -12 -33q0 -19 13 -31.5t33 -12.5q18 0 31 13t13 31zM255 700l-73 -118q57 -1 90 -36.5t33 -86.5q0 -54 -42 -91.5t-100 -37.5q-59 0 -98.5 37t-39.5 90q0 41 36 103l86 140h108z" />
    <glyph glyph-name="uni2077" unicode="&#x2077;" horiz-adv-x="285" 
d="M20 700h250v-50l-140 -310h-100l123 275h-133v85z" />
    <glyph glyph-name="uni2078" unicode="&#x2078;" horiz-adv-x="324" 
d="M282 601q0 -37 -25 -60q42 -31 42 -89q0 -51 -38.5 -86.5t-98.5 -35.5t-98.5 35.5t-38.5 86.5q0 53 44 89q-27 27 -27 63q0 43 34.5 74.5t85.5 31.5q52 0 86 -32.5t34 -76.5zM120 454q0 -17 11.5 -28t30.5 -11t30.5 11t11.5 28t-11.5 28.5t-30.5 11.5t-30.5 -11.5
t-11.5 -28.5zM135 597q0 -11 7.5 -19t19.5 -8t19.5 8t7.5 19q0 12 -7.5 20t-19.5 8t-19.5 -8t-7.5 -20z" />
    <glyph glyph-name="uni2079" unicode="&#x2079;" horiz-adv-x="330" 
d="M120 581q0 -19 12 -31.5t32 -12.5q19 0 34 11q12 15 12 33q0 19 -13 31.5t-33 12.5q-18 0 -31 -13t-13 -31zM75 340l73 118q-57 1 -90 36.5t-33 86.5q0 53 41.5 91t98.5 38q54 0 97 -35.5t43 -91.5q0 -41 -36 -103l-86 -140h-108z" />
    <glyph glyph-name="uni2080" unicode="&#x2080;" horiz-adv-x="338" 
d="M130 180q0 -100 39 -100t39 100t-39 100t-39 -100zM30 180q0 83 33 136.5t106 53.5q139 0 139 -190t-139 -190q-73 0 -106 53.5t-33 136.5z" />
    <glyph glyph-name="uni2081" unicode="&#x2081;" horiz-adv-x="265" 
d="M30 181v102l130 67h60v-350h-100v227z" />
    <glyph glyph-name="uni2082" unicode="&#x2082;" horiz-adv-x="312" 
d="M125 254l-90 26q11 41 45.5 65.5t79.5 24.5q50 0 85 -32t35 -81q0 -47 -42 -99l-59 -73h108v-85h-257v50l131 159q21 27 21 43q0 12 -7 20t-19 8q-22 0 -31 -26z" />
    <glyph glyph-name="uni2083" unicode="&#x2083;" horiz-adv-x="296" 
d="M78 156v50l58 74h-114v80h230v-50l-60 -85q34 -14 54 -43.5t20 -64.5q0 -55 -42.5 -91t-101.5 -36q-73 0 -122 49l59 60q22 -27 60 -27q20 0 34.5 12.5t14.5 32.5t-15 33.5t-36 13.5q-19 0 -39 -8z" />
    <glyph glyph-name="uni2084" unicode="&#x2084;" horiz-adv-x="350" 
d="M264 360v-215h66v-75h-66v-70h-85v70h-159v50l184 240h60zM134 145h45v58z" />
    <glyph glyph-name="uni2085" unicode="&#x2085;" horiz-adv-x="294" 
d="M10 42l66 54q20 -26 51 -26q21 0 35 13.5t14 34.5t-15 34.5t-36 13.5q-19 0 -36 -11l-54 8l19 197h190v-80h-110l-3 -35h7q62 0 96.5 -38.5t34.5 -88.5q0 -57 -39.5 -92.5t-101.5 -35.5q-76 0 -118 52z" />
    <glyph glyph-name="uni2086" unicode="&#x2086;" horiz-adv-x="330" 
d="M210 119q0 19 -12 31.5t-32 12.5q-19 0 -34 -11q-12 -15 -12 -33q0 -19 13 -31.5t33 -12.5q18 0 31 13t13 31zM255 360l-73 -118q57 -1 90 -36.5t33 -86.5q0 -54 -42 -91.5t-100 -37.5q-59 0 -98.5 37t-39.5 90q0 41 36 103l86 140h108z" />
    <glyph glyph-name="uni2087" unicode="&#x2087;" horiz-adv-x="285" 
d="M20 360h250v-50l-140 -310h-100l123 275h-133v85z" />
    <glyph glyph-name="uni2088" unicode="&#x2088;" horiz-adv-x="324" 
d="M282 261q0 -37 -25 -60q42 -31 42 -89q0 -51 -38.5 -86.5t-98.5 -35.5t-98.5 35.5t-38.5 86.5q0 53 44 89q-27 27 -27 63q0 43 34.5 74.5t85.5 31.5q52 0 86 -32.5t34 -76.5zM120 114q0 -17 11.5 -28t30.5 -11t30.5 11t11.5 28t-11.5 28.5t-30.5 11.5t-30.5 -11.5
t-11.5 -28.5zM135 257q0 -11 7.5 -19t19.5 -8t19.5 8t7.5 19q0 12 -7.5 20t-19.5 8t-19.5 -8t-7.5 -20z" />
    <glyph glyph-name="uni2089" unicode="&#x2089;" horiz-adv-x="330" 
d="M120 241q0 -19 12 -31.5t32 -12.5q19 0 34 11q12 15 12 33q0 19 -13 31.5t-33 12.5q-18 0 -31 -13t-13 -31zM75 0l73 118q-57 1 -90 36.5t-33 86.5q0 53 41.5 91t98.5 38q54 0 97 -35.5t43 -91.5q0 -41 -36 -103l-86 -140h-108z" />
    <glyph glyph-name="Euro" unicode="&#x20ac;" horiz-adv-x="650" 
d="M-5 375v110h91q35 101 114.5 163t184.5 62q143 0 232 -117l-97 -79q-52 76 -133 76q-51 0 -92 -27.5t-64 -77.5h235v-110h-265q-1 -8 -1 -25t1 -25h265v-110h-237q21 -49 63 -77t95 -28q98 0 153 91l100 -75q-99 -136 -253 -136q-108 0 -188 61t-114 164h-90v110h70v50
h-70z" />
    <glyph glyph-name="trademark" unicode="&#x2122;" horiz-adv-x="880" 
d="M70 700h287v-80h-100v-303h-87v303h-100v80zM460 700l149 -217l148 217h53v-383h-89v183l-91 -131h-44l-91 131v-183h-89v383h54z" />
    <glyph glyph-name="Omega" unicode="&#x2126;" horiz-adv-x="750" 
d="M375 590q-97 0 -158.5 -70.5t-61.5 -174.5q0 -159 143 -265v-80h-273v120h73q-73 97 -73 230q0 151 100.5 255.5t249.5 104.5t249.5 -104.5t100.5 -255.5q0 -133 -73 -230h73v-120h-273v80q143 106 143 265q0 104 -61.5 174.5t-158.5 70.5z" />
    <glyph glyph-name="arrowleft" unicode="&#x2190;" horiz-adv-x="716" 
d="M656 205h-421l170 -170h-156l-189 190v70l189 190h156l-170 -170h421v-110z" />
    <glyph glyph-name="arrowright" unicode="&#x2192;" horiz-adv-x="716" 
d="M481 205h-421v110h421l-170 170h156l189 -190v-70l-189 -190h-156z" />
    <glyph glyph-name="uni2196" unicode="&#x2196;" horiz-adv-x="605" 
d="M110 485h266l110 -110h-239l298 -298l-77 -77l-298 298v-238l-110 110v265z" />
    <glyph glyph-name="uni2197" unicode="&#x2197;" horiz-adv-x="605" 
d="M229 485h266l50 -50v-265l-110 -110v238l-298 -298l-77 77l298 298h-239z" />
    <glyph glyph-name="uni2198" unicode="&#x2198;" horiz-adv-x="605" 
d="M495 0h-266l-110 110h239l-298 298l77 77l298 -298v238l110 -110v-265z" />
    <glyph glyph-name="uni2199" unicode="&#x2199;" horiz-adv-x="605" 
d="M376 0h-266l-50 50v265l110 110v-238l298 298l77 -77l-298 -298h239z" />
    <glyph glyph-name="partialdiff" unicode="&#x2202;" horiz-adv-x="596" 
d="M285 494l-154 216h151l185 -257q89 -122 89 -211q0 -105 -73.5 -178.5t-182.5 -73.5q-111 0 -185.5 73t-74.5 179q0 103 69 175.5t176 76.5zM428 242q0 57 -37 103l-9 11q-29 19 -74 19q-61 0 -99.5 -37t-38.5 -96q0 -56 37 -94t93 -38q55 0 91.5 38.5t36.5 93.5z" />
    <glyph glyph-name="Delta" unicode="&#x2206;" 
d="M10 70l240 630h90l240 -630v-70h-570v70zM295 510l-152 -400h304z" />
    <glyph glyph-name="product" unicode="&#x220f;" 
d="M15 700h560v-110h-100v-590h-120v590h-120v-590h-120v590h-100v110z" />
    <glyph glyph-name="summation" unicode="&#x2211;" horiz-adv-x="585" 
d="M390 326l-206 -216h251v100h110v-210h-550v70l274 290l-264 270v70h530v-210h-110v100h-227l192 -194v-70z" />
    <glyph glyph-name="minus" unicode="&#x2212;" horiz-adv-x="550" 
d="M45 335h460v-110h-460v110z" />
    <glyph glyph-name="uni2215" unicode="&#x2215;" horiz-adv-x="530" 
d="M116 0h-111l409 700h111z" />
    <glyph glyph-name="uni2219" unicode="&#x2219;" horiz-adv-x="375" 
d="M100 242q0 37 25 62.5t62 25.5t62.5 -25.5t25.5 -62.5t-25.5 -62t-62.5 -25t-62 25t-25 62z" />
    <glyph glyph-name="radical" unicode="&#x221a;" horiz-adv-x="610" 
d="M-10 485h167l141 -306l186 521h116l-249 -700h-90l-175 375h-96v110z" />
    <glyph glyph-name="infinity" unicode="&#x221e;" horiz-adv-x="780" 
d="M755 277q0 -91 -59 -149t-143 -58q-101 0 -163 94q-62 -94 -163 -94q-84 0 -143 58t-59 149t59 149t143 58q100 0 163 -94q63 94 163 94q84 0 143 -58t59 -149zM553 374q-34 0 -56.5 -24.5t-46.5 -72.5q24 -48 46.5 -72.5t56.5 -24.5q42 0 67 27.5t25 69.5t-25 69.5
t-67 27.5zM227 180q33 0 56 24.5t47 72.5q-24 48 -47 72.5t-56 24.5q-42 0 -67 -27.5t-25 -69.5t25 -69.5t67 -27.5z" />
    <glyph glyph-name="integral" unicode="&#x222b;" horiz-adv-x="555" 
d="M-105 -229l33 108q36 -14 66 -14q91 0 120 93q23 74 49 298.5t45 286.5q54 177 243 177q52 0 99 -21l-33 -108q-36 14 -66 14q-91 0 -120 -93q-23 -74 -49 -298.5t-45 -286.5q-54 -177 -243 -177q-52 0 -99 21z" />
    <glyph glyph-name="approxequal" unicode="&#x2248;" horiz-adv-x="570" 
d="M127 78l-107 27q14 69 57 115.5t111 46.5q41 0 78 -21t65 -42t47 -21q24 0 41.5 22t23.5 57l107 -27q-14 -69 -57 -115.5t-111 -46.5q-41 0 -78 21t-65 42t-47 21q-24 0 -41.5 -22t-23.5 -57zM127 298l-107 27q14 69 57 115.5t111 46.5q41 0 78 -21t65 -42t47 -21
q24 0 41.5 22t23.5 57l107 -27q-14 -69 -57 -115.5t-111 -46.5q-41 0 -78 21t-65 42t-47 21q-24 0 -41.5 -22t-23.5 -57z" />
    <glyph glyph-name="notequal" unicode="&#x2260;" horiz-adv-x="550" 
d="M495 550l-62 -110h72v-110h-134l-56 -100h190v-110h-252l-62 -110h-126l62 110h-82v110h144l56 100h-200v110h262l62 110h126z" />
    <glyph glyph-name="lessequal" unicode="&#x2264;" horiz-adv-x="550" 
d="M45 140h460v-110h-460v110zM505 419l-218 -70l218 -70v-116l-460 151v70l460 151v-116z" />
    <glyph glyph-name="greaterequal" unicode="&#x2265;" horiz-adv-x="550" 
d="M45 140h460v-110h-460v110zM263 349l-218 70v116l460 -151v-70l-460 -151v116z" />
    <glyph glyph-name="lozenge" unicode="&#x25ca;" horiz-adv-x="560" 
d="M235 0l-200 315v70l200 315h90l200 -315v-70l-200 -315h-90zM142 350l138 -216l137 216l-137 215z" />
    <glyph glyph-name="uniFB00" unicode="&#xfb00;" horiz-adv-x="830" 
d="M795 711l-20 -111q-18 5 -39 5q-49 0 -73 -28q-18 -23 -18 -77v-15h150v-110h-150v-375h-130v375h-240v-375h-130v375h-125v110h125v20q0 108 52 158q59 57 151 57q42 0 77 -9l-20 -111q-18 5 -39 5q-49 0 -73 -28q-18 -23 -18 -77v-15h240v20q0 108 52 158q59 57 151 57
q42 0 77 -9z" />
    <glyph glyph-name="fi" unicode="&#xfb01;" horiz-adv-x="720" 
d="M425 711l-20 -111q-18 5 -39 5q-49 0 -73 -28q-18 -23 -18 -77v-15h370v-485h-130v375h-240v-375h-130v375h-125v110h125v20q0 108 52 158q59 57 151 57q42 0 77 -9zM495 657q0 35 25 59t60 24t60 -24t25 -59t-25 -59t-60 -24t-60 24t-25 59z" />
    <glyph glyph-name="fl" unicode="&#xfb02;" horiz-adv-x="720" 
d="M425 711l-20 -111q-18 5 -39 5q-49 0 -73 -28q-18 -23 -18 -77v-15h240v225h130v-710h-130v375h-240v-375h-130v375h-125v110h125v20q0 108 52 158q59 57 151 57q42 0 77 -9z" />
    <glyph glyph-name="uniFB03" unicode="&#xfb03;" horiz-adv-x="1090" 
d="M795 711l-20 -111q-18 5 -39 5q-49 0 -73 -28q-18 -23 -18 -77v-15h370v-485h-130v375h-240v-375h-130v375h-240v-375h-130v375h-125v110h125v20q0 108 52 158q59 57 151 57q42 0 77 -9l-20 -111q-18 5 -39 5q-49 0 -73 -28q-18 -23 -18 -77v-15h240v20q0 108 52 158
q59 57 151 57q42 0 77 -9zM865 657q0 35 25 59t60 24t60 -24t25 -59t-25 -59t-60 -24t-60 24t-25 59z" />
    <glyph glyph-name="uniFB04" unicode="&#xfb04;" horiz-adv-x="1090" 
d="M795 711l-20 -111q-18 5 -39 5q-49 0 -73 -28q-18 -23 -18 -77v-15h240v225h130v-710h-130v375h-240v-375h-130v375h-240v-375h-130v375h-125v110h125v20q0 108 52 158q59 57 151 57q42 0 77 -9l-20 -111q-18 5 -39 5q-49 0 -73 -28q-18 -23 -18 -77v-15h240v20
q0 108 52 158q59 57 151 57q42 0 77 -9z" />
    <glyph glyph-name="i.latn_TRK" horiz-adv-x="280" 
d="M205 485v-485h-130v485h130zM55 657q0 35 25 59t60 24t60 -24t25 -59t-25 -59t-60 -24t-60 24t-25 59z" />
    <glyph glyph-name="zero.numr" horiz-adv-x="338" 
d="M130 520q0 -100 39 -100t39 100t-39 100t-39 -100zM30 520q0 83 33 136.5t106 53.5q139 0 139 -190t-139 -190q-73 0 -106 53.5t-33 136.5z" />
    <glyph glyph-name="one.numr" horiz-adv-x="260" 
d="M30 541v97l120 62h60v-360h-100v242z" />
    <glyph glyph-name="two.numr" horiz-adv-x="317" 
d="M125 594l-90 26q11 41 45.5 65.5t79.5 24.5q50 0 85 -32t35 -81q0 -47 -42 -99l-59 -73h108v-85h-257v50l131 159q21 27 21 43q0 12 -7 20t-19 8q-22 0 -31 -26z" />
    <glyph glyph-name="three.numr" horiz-adv-x="296" 
d="M78 496v50l58 74h-114v80h230v-50l-60 -85q34 -14 54 -43.5t20 -64.5q0 -55 -42.5 -91t-101.5 -36q-73 0 -122 49l59 60q22 -27 60 -27q20 0 34.5 12.5t14.5 32.5t-15 33.5t-36 13.5q-19 0 -39 -8z" />
    <glyph glyph-name="four.numr" horiz-adv-x="350" 
d="M264 700v-215h66v-75h-66v-70h-85v70h-159v50l184 240h60zM134 485h45v58z" />
    <glyph glyph-name="five.numr" horiz-adv-x="294" 
d="M10 382l66 54q20 -26 51 -26q21 0 35 13.5t14 34.5t-15 34.5t-36 13.5q-19 0 -36 -11l-54 8l19 197h190v-80h-110l-3 -35h7q62 0 96.5 -38.5t34.5 -88.5q0 -57 -39.5 -92.5t-101.5 -35.5q-76 0 -118 52z" />
    <glyph glyph-name="six.numr" horiz-adv-x="330" 
d="M210 459q0 19 -12 31.5t-32 12.5q-19 0 -34 -11q-12 -15 -12 -33q0 -19 13 -31.5t33 -12.5q18 0 31 13t13 31zM255 700l-73 -118q57 -1 90 -36.5t33 -86.5q0 -54 -42 -91.5t-100 -37.5q-59 0 -98.5 37t-39.5 90q0 41 36 103l86 140h108z" />
    <glyph glyph-name="seven.numr" horiz-adv-x="285" 
d="M20 700h250v-50l-140 -310h-100l123 275h-133v85z" />
    <glyph glyph-name="eight.numr" horiz-adv-x="324" 
d="M282 601q0 -37 -25 -60q42 -31 42 -89q0 -51 -38.5 -86.5t-98.5 -35.5t-98.5 35.5t-38.5 86.5q0 53 44 89q-27 27 -27 63q0 43 34.5 74.5t85.5 31.5q52 0 86 -32.5t34 -76.5zM120 454q0 -17 11.5 -28t30.5 -11t30.5 11t11.5 28t-11.5 28.5t-30.5 11.5t-30.5 -11.5
t-11.5 -28.5zM135 597q0 -11 7.5 -19t19.5 -8t19.5 8t7.5 19q0 12 -7.5 20t-19.5 8t-19.5 -8t-7.5 -20z" />
    <glyph glyph-name="nine.numr" horiz-adv-x="330" 
d="M120 581q0 -19 12 -31.5t32 -12.5q19 0 34 11q12 15 12 33q0 19 -13 31.5t-33 12.5q-18 0 -31 -13t-13 -31zM75 340l73 118q-57 1 -90 36.5t-33 86.5q0 53 41.5 91t98.5 38q54 0 97 -35.5t43 -91.5q0 -41 -36 -103l-86 -140h-108z" />
    <glyph glyph-name="zero.dnom" horiz-adv-x="338" 
d="M130 180q0 -100 39 -100t39 100t-39 100t-39 -100zM30 180q0 83 33 136.5t106 53.5q139 0 139 -190t-139 -190q-73 0 -106 53.5t-33 136.5z" />
    <glyph glyph-name="one.dnom" horiz-adv-x="260" 
d="M30 201v97l120 62h60v-360h-100v242z" />
    <glyph glyph-name="two.dnom" horiz-adv-x="317" 
d="M125 254l-90 26q11 41 45.5 65.5t79.5 24.5q50 0 85 -32t35 -81q0 -47 -42 -99l-59 -73h108v-85h-257v50l131 159q21 27 21 43q0 12 -7 20t-19 8q-22 0 -31 -26z" />
    <glyph glyph-name="three.dnom" horiz-adv-x="296" 
d="M78 156v50l58 74h-114v80h230v-50l-60 -85q34 -14 54 -43.5t20 -64.5q0 -55 -42.5 -91t-101.5 -36q-73 0 -122 49l59 60q22 -27 60 -27q20 0 34.5 12.5t14.5 32.5t-15 33.5t-36 13.5q-19 0 -39 -8z" />
    <glyph glyph-name="four.dnom" horiz-adv-x="350" 
d="M264 360v-215h66v-75h-66v-70h-85v70h-159v50l184 240h60zM134 145h45v58z" />
    <glyph glyph-name="five.dnom" horiz-adv-x="294" 
d="M10 42l66 54q20 -26 51 -26q21 0 35 13.5t14 34.5t-15 34.5t-36 13.5q-19 0 -36 -11l-54 8l19 197h190v-80h-110l-3 -35h7q62 0 96.5 -38.5t34.5 -88.5q0 -57 -39.5 -92.5t-101.5 -35.5q-76 0 -118 52z" />
    <glyph glyph-name="six.dnom" horiz-adv-x="330" 
d="M210 119q0 19 -12 31.5t-32 12.5q-19 0 -34 -11q-12 -15 -12 -33q0 -19 13 -31.5t33 -12.5q18 0 31 13t13 31zM255 360l-73 -118q57 -1 90 -36.5t33 -86.5q0 -54 -42 -91.5t-100 -37.5q-59 0 -98.5 37t-39.5 90q0 41 36 103l86 140h108z" />
    <glyph glyph-name="seven.dnom" horiz-adv-x="285" 
d="M20 360h250v-50l-140 -310h-100l123 275h-133v85z" />
    <glyph glyph-name="eight.dnom" horiz-adv-x="324" 
d="M282 261q0 -37 -25 -60q42 -31 42 -89q0 -51 -38.5 -86.5t-98.5 -35.5t-98.5 35.5t-38.5 86.5q0 53 44 89q-27 27 -27 63q0 43 34.5 74.5t85.5 31.5q52 0 86 -32.5t34 -76.5zM120 114q0 -17 11.5 -28t30.5 -11t30.5 11t11.5 28t-11.5 28.5t-30.5 11.5t-30.5 -11.5
t-11.5 -28.5zM135 257q0 -11 7.5 -19t19.5 -8t19.5 8t7.5 19q0 12 -7.5 20t-19.5 8t-19.5 -8t-7.5 -20z" />
    <glyph glyph-name="nine.dnom" horiz-adv-x="330" 
d="M120 241q0 -19 12 -31.5t32 -12.5q19 0 34 11q12 15 12 33q0 19 -13 31.5t-33 12.5q-18 0 -31 -13t-13 -31zM75 0l73 118q-57 1 -90 36.5t-33 86.5q0 53 41.5 91t98.5 38q54 0 97 -35.5t43 -91.5q0 -41 -36 -103l-86 -140h-108z" />
    <glyph glyph-name="quotedbl.tf" 
d="M255 700l-20 -255h-90l-20 255h130zM465 700l-20 -255h-90l-20 255h130z" />
    <glyph glyph-name="numbersign.tf" 
d="M247 405l-30 -110h126l30 110h-126zM23 515h140l49 185h114l-49 -185h126l49 185h114l-49 -185h110v-110h-139l-31 -110h110l4 -110h-143l-49 -185h-114l49 185h-126l-49 -185h-114l49 185h-110v110h139l30 110h-110v110z" />
    <glyph glyph-name="dollar.tf" 
d="M50 95l88 92q70 -77 165 -77q45 0 73.5 25t28.5 63q0 40 -32 64.5t-97.5 49.5t-94.5 42q-99 58 -99 159q0 70 44 119t112 68v115h120v-108q85 -9 158 -63l-70 -100q-50 46 -121 46q-43 0 -75.5 -19t-32.5 -57q0 -30 33.5 -52.5t80.5 -40t94.5 -40.5t81 -69t33.5 -112
q0 -77 -52 -132.5t-130 -71.5v-111h-120v112q-103 19 -188 98z" />
    <glyph glyph-name="quotesingle.tf" 
d="M360 700l-20 -255h-90l-20 255h130z" />
    <glyph glyph-name="plus.tf" 
d="M65 335h175v175h110v-175h175v-110h-175v-175h-110v175h-175v110z" />
    <glyph glyph-name="zero.tf" 
d="M405 350q0 108 -26.5 174t-83.5 66t-83.5 -66t-26.5 -174t26.5 -174t83.5 -66t83.5 66t26.5 174zM50 350q0 77 13.5 140.5t41.5 113.5t76.5 78t113.5 28t113.5 -28t76.5 -78t41.5 -113.5t13.5 -140.5t-13.5 -140.5t-41.5 -113.5t-76.5 -78t-113.5 -28t-113.5 28t-76.5 78
t-41.5 113.5t-13.5 140.5z" />
    <glyph glyph-name="one.tf" 
d="M105 460v128l190 112h95v-580h155v-120h-490v120h200v424z" />
    <glyph glyph-name="two.tf" 
d="M189 511l-124 37q21 73 81 117.5t138 44.5q92 0 159 -61.5t67 -154.5q0 -98 -90 -201l-149 -173h244v-120h-455v80l246 279q69 78 69 137q0 38 -26 66t-65 28q-34 0 -59 -21.5t-36 -57.5z" />
    <glyph glyph-name="three.tf" 
d="M43 99l97 81q50 -70 130 -70q52 0 91.5 36.5t39.5 90.5q0 55 -39.5 91.5t-98.5 36.5q-44 0 -84 -20v80l131 155h-234v120h425v-80l-127 -156q74 -28 118 -88.5t44 -138.5q0 -109 -75 -178t-186 -69q-135 0 -232 109z" />
    <glyph glyph-name="four.tf" 
d="M375 700h95v-420h115v-120h-115v-160h-135v160h-325v80zM204 280h131v164z" />
    <glyph glyph-name="five.tf" 
d="M60 80l92 86q52 -56 120 -56q49 0 84 32q39 36 39 90q0 58 -43 95q-32 28 -85 28q-57 0 -103 -38l-84 12l45 371h370v-120h-260l-11 -110q23 5 54 5q98 0 163 -53q41 -33 65 -83.5t24 -106.5q0 -103 -75.5 -172.5t-182.5 -69.5q-122 0 -212 90z" />
    <glyph glyph-name="six.tf" 
d="M279 700h149l-132 -223h9q101 0 173 -69t72 -172q0 -102 -73.5 -174t-175.5 -72q-103 0 -179.5 66.5t-76.5 172.5q0 77 69 193zM217 340q-42 -57 -42 -111q0 -49 36.5 -84t87.5 -35t84.5 35.5t33.5 86.5q0 52 -35 88.5t-90 36.5q-38 0 -75 -17z" />
    <glyph glyph-name="seven.tf" 
d="M70 580v120h460v-80l-301 -620h-143l283 580h-299z" />
    <glyph glyph-name="eight.tf" 
d="M295 445q31 0 50.5 20.5t19.5 51.5t-19.5 52t-50.5 21t-50.5 -21t-19.5 -52t19.5 -51.5t50.5 -20.5zM295 110q49 0 82 31t33 76t-33 76.5t-82 31.5t-82 -31.5t-33 -76.5t33 -76t82 -31zM295 -10q-105 0 -177.5 66t-72.5 161q0 111 101 177q-56 50 -56 123q0 81 58.5 137
t146.5 56t146.5 -56t58.5 -137q0 -73 -56 -123q101 -66 101 -177q0 -95 -72.5 -161t-177.5 -66z" />
    <glyph glyph-name="nine.tf" 
d="M311 0h-149l132 223h-9q-101 0 -173 69t-72 172q0 102 73.5 174t175.5 72q103 0 179.5 -66.5t76.5 -172.5q0 -77 -69 -193zM373 360q42 57 42 111q0 49 -36.5 84t-87.5 35t-84.5 -35.5t-33.5 -86.5q0 -52 35 -88.5t90 -36.5q38 0 75 17z" />
    <glyph glyph-name="less.tf" 
d="M259 280l266 -116v-119l-460 200v70l460 200v-119z" />
    <glyph glyph-name="equal.tf" 
d="M65 230h460v-110h-460v110zM65 440h460v-110h-460v110z" />
    <glyph glyph-name="greater.tf" 
d="M65 164l266 116l-266 116v119l460 -200v-70l-460 -200v119z" />
    <glyph glyph-name="asciicircum.tf" 
d="M65 350l185 350h90l185 -350h-124l-106 201l-106 -201h-124z" />
    <glyph glyph-name="asciitilde.tf" 
d="M137 188l-107 27q14 69 57 115.5t111 46.5q41 0 78 -21t65 -42t47 -21q24 0 41.5 22t23.5 57l107 -27q-14 -69 -57 -115.5t-111 -46.5q-41 0 -78 21t-65 42t-47 21q-24 0 -41.5 -22t-23.5 -57z" />
    <glyph glyph-name="cent.tf" 
d="M445 174l100 -75q-67 -88 -168 -105v-109h-120v114q-86 20 -139 87.5t-53 155.5t53.5 155t138.5 89v114h120v-110q95 -18 153 -92l-92 -81q-44 58 -112 58q-56 0 -93.5 -38.5t-37.5 -94.5q0 -57 37 -94.5t95 -37.5q38 0 69.5 18.5t48.5 45.5z" />
    <glyph glyph-name="sterling.tf" 
d="M274 405h135v-110h-97q4 -28 4 -47q0 -69 -40 -128h274v-120h-495v80q62 20 96.5 64.5t34.5 102.5q0 25 -5 48h-111v110h66q-20 48 -20 103q0 84 62.5 143t149.5 59q73 0 124 -36.5t74 -99.5l-113 -44q-10 26 -31.5 43t-49.5 17q-36 0 -61 -23.5t-25 -58.5q0 -38 28 -103
z" />
    <glyph glyph-name="currency.tf" 
d="M84 351q0 54 26 100l-80 80l85 85l80 -80q46 26 100 26q55 0 101 -26l79 80l85 -85l-79 -80q25 -47 25 -100q0 -54 -25 -101l79 -79l-85 -85l-79 79q-47 -25 -101 -25q-53 0 -100 25l-80 -79l-85 85l80 79q-26 46 -26 101zM214 351q0 -34 23.5 -57.5t57.5 -23.5
t57.5 23.5t23.5 57.5t-23.5 57.5t-57.5 23.5t-57.5 -23.5t-23.5 -57.5z" />
    <glyph glyph-name="yen.tf" 
d="M34 215v110h188l-32 50h-156v110h87l-134 215h154l154 -246l153 246h154l-135 -215h88v-110h-157l-31 -50h188v-110h-193v-215h-135v215h-193z" />
    <glyph glyph-name="section.tf" 
d="M550 215q0 -88 -70 -150q30 -43 30 -98q0 -89 -69 -143t-162 -54q-114 0 -203 66l70 100q50 -46 121 -46q43 0 75.5 19t32.5 57q0 26 -24.5 46t-60.5 31.5t-79 29.5t-79 39t-60.5 60.5t-24.5 92.5q0 89 70 149q-30 41 -30 99q0 89 69 143t162 54q114 0 203 -66l-70 -100
q-50 46 -121 46q-43 0 -75.5 -19t-32.5 -57q0 -26 24.5 -46t60.5 -31.5t79 -29.5t79 -39t60.5 -60.5t24.5 -92.5zM415 213q0 27 -20 47t-43 29t-66.5 23.5t-66.5 24.5q-37 -25 -37 -70q0 -27 19.5 -47t43 -29.5t66.5 -23.5t67 -25q37 26 37 71z" />
    <glyph glyph-name="logicalnot.tf" 
d="M525 440v-320h-110v210h-350v110h460z" />
    <glyph glyph-name="plusminus.tf" 
d="M240 294h-175v110h175v126h110v-126h175v-110h-175v-126h-110v126zM65 140h460v-110h-460v110z" />
    <glyph glyph-name="mu.tf" 
d="M400 485h130v-485h-125v39q-55 -49 -131 -49q-48 0 -84 22v-252h-130v725h130v-262q0 -56 24 -83q27 -30 73 -30q66 0 113 60v315z" />
    <glyph glyph-name="multiply.tf" 
d="M150 503l145 -145l145 145l78 -78l-145 -145l145 -145l-78 -78l-145 145l-145 -145l-78 78l145 145l-145 145z" />
    <glyph glyph-name="divide.tf" 
d="M65 335h460v-110h-460v110zM220 457q0 31 22 52t53 21t53 -21t22 -52t-22 -52t-53 -21t-53 21t-22 52zM220 103q0 31 22 52t53 21t53 -21t22 -52t-22 -52t-53 -21t-53 21t-22 52z" />
    <glyph glyph-name="florin.tf" 
d="M-75 -229l33 108q36 -14 66 -14q91 0 120 93q6 19 11.5 45.5t9.5 48t9.5 59.5t7.5 57t7.5 66t7.5 61h-160v110h174q15 99 27 138q54 177 243 177q52 0 99 -21l-33 -108q-36 14 -66 14q-91 0 -120 -93q-12 -35 -24 -107h160v-110h-176q-4 -30 -12 -100.5t-12.5 -108
t-13 -84.5t-16.5 -75q-54 -177 -243 -177q-52 0 -99 21z" />
    <glyph glyph-name="pi.tf" 
d="M142 0v359q-38 -5 -63 -36l-70 72q28 42 81 61q37 14 93 14h398v-110h-100v-207q0 -32 7 -49t27 -34l-85 -80q-42 32 -55.5 69t-13.5 102v199h-99v-360h-120z" />
    <glyph glyph-name="Euro.tf" 
d="M-25 375v110h91q35 101 114.5 163t184.5 62q143 0 232 -117l-97 -79q-52 76 -133 76q-51 0 -92 -27.5t-64 -77.5h235v-110h-265q-1 -8 -1 -25t1 -25h265v-110h-237q21 -49 63 -77t95 -28q98 0 153 91l100 -75q-99 -136 -253 -136q-108 0 -188 61t-114 164h-90v110h70v50
h-70z" />
    <glyph glyph-name="partialdiff.tf" 
d="M282 494l-154 216h151l185 -257q89 -122 89 -211q0 -105 -73.5 -178.5t-182.5 -73.5q-111 0 -185.5 73t-74.5 179q0 103 69 175.5t176 76.5zM425 242q0 57 -37 103l-9 11q-29 19 -74 19q-61 0 -99.5 -37t-38.5 -96q0 -56 37 -94t93 -38q55 0 91.5 38.5t36.5 93.5z" />
    <glyph glyph-name="Delta.tf" 
d="M10 70l240 630h90l240 -630v-70h-570v70zM295 510l-152 -400h304z" />
    <glyph glyph-name="product.tf" 
d="M15 700h560v-110h-100v-590h-120v590h-120v-590h-120v590h-100v110z" />
    <glyph glyph-name="summation.tf" 
d="M405 326l-206 -216h251v100h110v-210h-550v70l274 290l-264 270v70h530v-210h-110v100h-227l192 -194v-70z" />
    <glyph glyph-name="minus.tf" 
d="M65 335h460v-110h-460v110z" />
    <glyph glyph-name="radical.tf" 
d="M-20 485h167l141 -306l186 521h116l-249 -700h-90l-175 375h-96v110z" />
    <glyph glyph-name="integral.tf" 
d="M-75 -229l33 108q36 -14 66 -14q91 0 120 93q23 74 49 298.5t45 286.5q54 177 243 177q52 0 99 -21l-33 -108q-36 14 -66 14q-91 0 -120 -93q-23 -74 -49 -298.5t-45 -286.5q-54 -177 -243 -177q-52 0 -99 21z" />
    <glyph glyph-name="approxequal.tf" 
d="M137 78l-107 27q14 69 57 115.5t111 46.5q41 0 78 -21t65 -42t47 -21q24 0 41.5 22t23.5 57l107 -27q-14 -69 -57 -115.5t-111 -46.5q-41 0 -78 21t-65 42t-47 21q-24 0 -41.5 -22t-23.5 -57zM137 298l-107 27q14 69 57 115.5t111 46.5q41 0 78 -21t65 -42t47 -21
q24 0 41.5 22t23.5 57l107 -27q-14 -69 -57 -115.5t-111 -46.5q-41 0 -78 21t-65 42t-47 21q-24 0 -41.5 -22t-23.5 -57z" />
    <glyph glyph-name="notequal.tf" 
d="M515 550l-62 -110h72v-110h-134l-56 -100h190v-110h-252l-62 -110h-126l62 110h-82v110h144l56 100h-200v110h262l62 110h126z" />
    <glyph glyph-name="lessequal.tf" 
d="M65 140h460v-110h-460v110zM525 419l-218 -70l218 -70v-116l-460 151v70l460 151v-116z" />
    <glyph glyph-name="greaterequal.tf" 
d="M65 140h460v-110h-460v110zM283 349l-218 70v116l460 -151v-70l-460 -151v116z" />
    <glyph glyph-name="lozenge.tf" 
d="M250 0l-200 315v70l200 315h90l200 -315v-70l-200 -315h-90zM157 350l138 -216l137 216l-137 215z" />
    <glyph glyph-name="parenleft.case" horiz-adv-x="455" 
d="M260 350q0 -221 119 -392l-97 -68q-142 203 -142 460t142 460l97 -68q-119 -171 -119 -392z" />
    <glyph glyph-name="parenright.case" horiz-adv-x="455" 
d="M195 350q0 221 -119 392l97 68q142 -203 142 -460t-142 -460l-97 68q119 171 119 392z" />
    <glyph glyph-name="hyphen.case" horiz-adv-x="470" 
d="M70 430h330v-110h-330v110z" />
    <glyph glyph-name="at.case" horiz-adv-x="1000" 
d="M382 350q0 -48 32.5 -81.5t82.5 -33.5q60 0 91 38q-2 26 -2 44v112q-32 36 -89 36q-50 0 -82.5 -33.5t-32.5 -81.5zM745 135q-70 0 -118 53q-58 -53 -137 -53q-49 0 -97.5 23t-84.5 74t-36 118q0 96 66 155.5t143 59.5q62 0 109 -31v21h106v-241q0 -39 10 -56
q14 -23 42 -23t45 24.5t22 53t5 62.5q0 131 -94 218t-222 87q-135 0 -229.5 -96t-94.5 -234q0 -137 93.5 -233.5t226.5 -96.5q116 0 198 65l62 -91q-112 -84 -253 -84q-183 0 -310 128.5t-127 311.5t125.5 311.5t307.5 128.5q113 0 210.5 -53t157 -149t59.5 -213
q0 -104 -47 -172t-138 -68z" />
    <glyph glyph-name="bracketleft.case" horiz-adv-x="455" 
d="M140 -100v900h275v-115h-155v-670h155v-115h-275z" />
    <glyph glyph-name="bracketright.case" horiz-adv-x="455" 
d="M315 800v-900h-275v115h155v670h-155v115h275z" />
    <glyph glyph-name="braceleft.case" horiz-adv-x="455" 
d="M187 350q22 -8 35.5 -17t25.5 -34.5t12 -65.5q0 -27 -5 -76.5t-5 -73.5q0 -68 76 -68h39v-115h-30q-98 0 -151.5 45.5t-53.5 133.5q0 30 5 83.5t5 79.5q0 68 -90 68v80q90 0 90 68q0 26 -5 79.5t-5 83.5q0 88 53.5 133.5t151.5 45.5h30v-115h-39q-76 0 -76 -68
q0 -24 5 -73.5t5 -76.5q0 -40 -12 -65.5t-25.5 -34.5t-35.5 -17z" />
    <glyph glyph-name="bar.case" horiz-adv-x="240" 
d="M180 800v-900h-120v900h120z" />
    <glyph glyph-name="braceright.case" horiz-adv-x="455" 
d="M268 350q-22 8 -35.5 17t-25.5 34.5t-12 65.5q0 27 5 76.5t5 73.5q0 68 -76 68h-39v115h30q98 0 151.5 -45.5t53.5 -133.5q0 -30 -5 -83.5t-5 -79.5q0 -68 90 -68v-80q-90 0 -90 -68q0 -26 5 -79.5t5 -83.5q0 -88 -53.5 -133.5t-151.5 -45.5h-30v115h39q76 0 76 68
q0 24 -5 73.5t-5 76.5q0 40 12 65.5t25.5 34.5t35.5 17z" />
    <glyph glyph-name="guillemotleft.case" horiz-adv-x="659" 
d="M196 527h143l-156 -190l156 -190h-143l-126 155v70zM476 527h143l-156 -190l156 -190h-143l-126 155v70z" />
    <glyph glyph-name="periodcentered.case" horiz-adv-x="375" 
d="M100 350q0 37 25 61.5t62 24.5t62.5 -24.5t25.5 -61.5q0 -36 -25.5 -60.5t-62.5 -24.5t-62 24t-25 61z" />
    <glyph glyph-name="guillemotright.case" horiz-adv-x="659" 
d="M320 527h143l126 -155v-70l-126 -155h-143l156 190zM40 527h143l126 -155v-70l-126 -155h-143l156 190z" />
    <glyph glyph-name="endash.case" horiz-adv-x="520" 
d="M15 430h490v-110h-490v110z" />
    <glyph glyph-name="emdash.case" horiz-adv-x="820" 
d="M15 430h790v-110h-790v110z" />
    <glyph glyph-name="bullet.case" horiz-adv-x="600" 
d="M80 350q0 91 64.5 155.5t155.5 64.5t155.5 -64.5t64.5 -155.5t-64.5 -155.5t-155.5 -64.5t-155.5 64.5t-64.5 155.5z" />
    <glyph glyph-name="guilsinglleft.case" horiz-adv-x="379" 
d="M196 527h143l-156 -190l156 -190h-143l-126 155v70z" />
    <glyph glyph-name="guilsinglright.case" horiz-adv-x="379" 
d="M40 527h143l126 -155v-70l-126 -155h-143l156 190z" />
    <glyph glyph-name="zero.zero" horiz-adv-x="600" 
d="M55 350q0 77 13.5 140.5t41.5 113.5t76.5 78t113.5 28t113.5 -28t76.5 -78t41.5 -113.5t13.5 -140.5t-13.5 -140.5t-41.5 -113.5t-76.5 -78t-113.5 -28t-113.5 28t-76.5 78t-41.5 113.5t-13.5 140.5zM300 590q-57 0 -83.5 -66t-26.5 -174q0 -45 2 -65l164 281
q-24 24 -56 24zM410 350q0 33 -3 63l-163 -280q23 -23 56 -23q57 0 83.5 66t26.5 174z" />
    <glyph glyph-name="uni2070.zero" horiz-adv-x="338" 
d="M30 520q0 83 33 136.5t106 53.5q139 0 139 -190t-139 -190q-73 0 -106 53.5t-33 136.5zM169 420q39 0 39 105l-57 -98q7 -7 18 -7zM130 517l56 97q-8 6 -17 6q-39 0 -39 -103z" />
    <glyph glyph-name="uni2080.zero" horiz-adv-x="338" 
d="M30 180q0 83 33 136.5t106 53.5q139 0 139 -190t-139 -190q-73 0 -106 53.5t-33 136.5zM169 80q39 0 39 105l-57 -98q7 -7 18 -7zM130 177l56 97q-8 6 -17 6q-39 0 -39 -103z" />
    <glyph glyph-name="zero.numr.zero" horiz-adv-x="338" 
d="M30 520q0 83 33 136.5t106 53.5q139 0 139 -190t-139 -190q-73 0 -106 53.5t-33 136.5zM169 420q39 0 39 105l-57 -98q7 -7 18 -7zM130 517l56 97q-8 6 -17 6q-39 0 -39 -103z" />
    <glyph glyph-name="zero.dnom.zero" horiz-adv-x="338" 
d="M30 180q0 83 33 136.5t106 53.5q139 0 139 -190t-139 -190q-73 0 -106 53.5t-33 136.5zM169 80q39 0 39 105l-57 -98q7 -7 18 -7zM130 177l56 97q-8 6 -17 6q-39 0 -39 -103z" />
    <glyph glyph-name="zero.tf.zero" 
d="M50 350q0 77 13.5 140.5t41.5 113.5t76.5 78t113.5 28t113.5 -28t76.5 -78t41.5 -113.5t13.5 -140.5t-13.5 -140.5t-41.5 -113.5t-76.5 -78t-113.5 -28t-113.5 28t-76.5 78t-41.5 113.5t-13.5 140.5zM295 590q-57 0 -83.5 -66t-26.5 -174q0 -45 2 -65l164 281
q-24 24 -56 24zM405 350q0 33 -3 63l-163 -280q23 -23 56 -23q57 0 83.5 66t26.5 174z" />
    <glyph glyph-name="a.ss01" horiz-adv-x="535" 
d="M340 150v50q-26 15 -65 15q-23 0 -44 -5t-38.5 -20t-17.5 -38t19 -37.5t46 -14.5q59 0 100 50zM470 0h-125v39q-14 -19 -48.5 -34t-76.5 -15q-74 0 -124.5 47t-50.5 115q0 77 58 122.5t141 45.5q52 0 96 -21q0 45 -28 65.5t-71 20.5q-65 0 -129 -40l-42 100q76 50 183 50
q112 0 173 -76q44 -55 44 -149v-270z" />
    <glyph glyph-name="agrave.ss01" horiz-adv-x="535" 
d="M120 720h140l70 -160h-90zM340 150v50q-26 15 -65 15q-23 0 -44 -5t-38.5 -20t-17.5 -38t19 -37.5t46 -14.5q59 0 100 50zM470 0h-125v39q-14 -19 -48.5 -34t-76.5 -15q-74 0 -124.5 47t-50.5 115q0 77 58 122.5t141 45.5q52 0 96 -21q0 45 -28 65.5t-71 20.5
q-65 0 -129 -40l-42 100q76 50 183 50q112 0 173 -76q44 -55 44 -149v-270z" />
    <glyph glyph-name="aacute.ss01" horiz-adv-x="535" 
d="M280 720h140l-120 -160h-90zM340 150v50q-26 15 -65 15q-23 0 -44 -5t-38.5 -20t-17.5 -38t19 -37.5t46 -14.5q59 0 100 50zM470 0h-125v39q-14 -19 -48.5 -34t-76.5 -15q-74 0 -124.5 47t-50.5 115q0 77 58 122.5t141 45.5q52 0 96 -21q0 45 -28 65.5t-71 20.5
q-65 0 -129 -40l-42 100q76 50 183 50q112 0 173 -76q44 -55 44 -149v-270z" />
    <glyph glyph-name="acircumflex.ss01" horiz-adv-x="535" 
d="M195 720h140l100 -160h-90l-80 90l-80 -90h-90zM340 150v50q-26 15 -65 15q-23 0 -44 -5t-38.5 -20t-17.5 -38t19 -37.5t46 -14.5q59 0 100 50zM470 0h-125v39q-14 -19 -48.5 -34t-76.5 -15q-74 0 -124.5 47t-50.5 115q0 77 58 122.5t141 45.5q52 0 96 -21q0 45 -28 65.5
t-71 20.5q-65 0 -129 -40l-42 100q76 50 183 50q112 0 173 -76q44 -55 44 -149v-270z" />
    <glyph glyph-name="atilde.ss01" horiz-adv-x="535" 
d="M340 150v50q-26 15 -65 15q-23 0 -44 -5t-38.5 -20t-17.5 -38t19 -37.5t46 -14.5q59 0 100 50zM470 0h-125v39q-14 -19 -48.5 -34t-76.5 -15q-74 0 -124.5 47t-50.5 115q0 77 58 122.5t141 45.5q52 0 96 -21q0 45 -28 65.5t-71 20.5q-65 0 -129 -40l-42 100q76 50 183 50
q112 0 173 -76q44 -55 44 -149v-270zM377 720l80 -16q0 -57 -29.5 -95.5t-81.5 -38.5q-32 0 -81 25t-68 25q-35 0 -40 -50l-80 16q0 57 29.5 95.5t81.5 38.5q32 0 81 -25t68 -25q35 0 40 50z" />
    <glyph glyph-name="adieresis.ss01" horiz-adv-x="535" 
d="M87 642q0 33 23.5 55.5t56.5 22.5t56.5 -22.5t23.5 -55.5t-23.5 -55.5t-56.5 -22.5t-56.5 22.5t-23.5 55.5zM297 642q0 33 23.5 55.5t56.5 22.5t56.5 -22.5t23.5 -55.5t-23.5 -55.5t-56.5 -22.5t-56.5 22.5t-23.5 55.5zM340 150v50q-26 15 -65 15q-23 0 -44 -5t-38.5 -20
t-17.5 -38t19 -37.5t46 -14.5q59 0 100 50zM470 0h-125v39q-14 -19 -48.5 -34t-76.5 -15q-74 0 -124.5 47t-50.5 115q0 77 58 122.5t141 45.5q52 0 96 -21q0 45 -28 65.5t-71 20.5q-65 0 -129 -40l-42 100q76 50 183 50q112 0 173 -76q44 -55 44 -149v-270z" />
    <glyph glyph-name="aring.ss01" horiz-adv-x="535" 
d="M155 650q0 46 32 78t78 32t78 -32t32 -78t-32 -78t-78 -32t-78 32t-32 78zM235 650q0 -13 8.5 -21.5t21.5 -8.5t21.5 8.5t8.5 21.5t-8.5 21.5t-21.5 8.5t-21.5 -8.5t-8.5 -21.5zM340 150v50q-26 15 -65 15q-23 0 -44 -5t-38.5 -20t-17.5 -38t19 -37.5t46 -14.5
q59 0 100 50zM470 0h-125v39q-14 -19 -48.5 -34t-76.5 -15q-74 0 -124.5 47t-50.5 115q0 77 58 122.5t141 45.5q52 0 96 -21q0 45 -28 65.5t-71 20.5q-65 0 -129 -40l-42 100q76 50 183 50q112 0 173 -76q44 -55 44 -149v-270z" />
    <glyph glyph-name="ae.ss01" horiz-adv-x="835" 
d="M467 305h200q-3 34 -30.5 59.5t-65.5 25.5q-39 0 -69 -25.5t-35 -59.5zM340 150v50q-26 15 -65 15q-23 0 -44 -5t-38.5 -20t-17.5 -38t19 -37.5t46 -14.5q59 0 100 50zM112 345l-42 100q76 50 183 50q99 0 160 -67q62 67 158 67q99 0 164 -72.5t65 -175.5q0 -21 -3 -37
h-336q5 -51 42 -83t89 -32q70 0 122 56l74 -74q-35 -41 -88.5 -64t-110.5 -23q-79 0 -135 36v-26h-109v39q-14 -19 -48.5 -34t-76.5 -15q-74 0 -124.5 47t-50.5 115q0 77 58 122.5t141 45.5q52 0 96 -21q0 45 -28 65.5t-71 20.5q-65 0 -129 -40z" />
    <glyph glyph-name="amacron.ss01" horiz-adv-x="535" 
d="M117 690h320v-100h-320v100zM340 150v50q-26 15 -65 15q-23 0 -44 -5t-38.5 -20t-17.5 -38t19 -37.5t46 -14.5q59 0 100 50zM470 0h-125v39q-14 -19 -48.5 -34t-76.5 -15q-74 0 -124.5 47t-50.5 115q0 77 58 122.5t141 45.5q52 0 96 -21q0 45 -28 65.5t-71 20.5
q-65 0 -129 -40l-42 100q76 50 183 50q112 0 173 -76q44 -55 44 -149v-270z" />
    <glyph glyph-name="abreve.ss01" horiz-adv-x="535" 
d="M322 720h105q0 -62 -44 -106t-106 -44t-106 44t-44 106h105q0 -19 13 -32t32 -13t32 13t13 32zM340 150v50q-26 15 -65 15q-23 0 -44 -5t-38.5 -20t-17.5 -38t19 -37.5t46 -14.5q59 0 100 50zM470 0h-125v39q-14 -19 -48.5 -34t-76.5 -15q-74 0 -124.5 47t-50.5 115
q0 77 58 122.5t141 45.5q52 0 96 -21q0 45 -28 65.5t-71 20.5q-65 0 -129 -40l-42 100q76 50 183 50q112 0 173 -76q44 -55 44 -149v-270z" />
    <glyph glyph-name="aogonek.ss01" horiz-adv-x="535" 
d="M340 150v50q-26 15 -65 15q-23 0 -44 -5t-38.5 -20t-17.5 -38t19 -37.5t46 -14.5q59 0 100 50zM470 270v-270q-26 -38 -26 -63q0 -18 11 -30t29 -12q13 0 25 4l15 -109q-20 -10 -65 -10q-61 0 -98 34.5t-37 85.5q0 42 21 93v46q-14 -19 -48.5 -34t-76.5 -15
q-74 0 -124.5 47t-50.5 115q0 77 58 122.5t141 45.5q52 0 96 -21q0 45 -28 65.5t-71 20.5q-65 0 -129 -40l-42 100q76 50 183 50q112 0 173 -76q44 -55 44 -149z" />
    <glyph glyph-name="aringacute.ss01" horiz-adv-x="535" 
d="M155 650q0 46 32 78t78 32t78 -32t32 -78t-32 -78t-78 -32t-78 32t-32 78zM235 650q0 -13 8.5 -21.5t21.5 -8.5t21.5 8.5t8.5 21.5t-8.5 21.5t-21.5 8.5t-21.5 -8.5t-8.5 -21.5zM290 960h140l-120 -160h-90zM340 150v50q-26 15 -65 15q-23 0 -44 -5t-38.5 -20t-17.5 -38
t19 -37.5t46 -14.5q59 0 100 50zM470 0h-125v39q-14 -19 -48.5 -34t-76.5 -15q-74 0 -124.5 47t-50.5 115q0 77 58 122.5t141 45.5q52 0 96 -21q0 45 -28 65.5t-71 20.5q-65 0 -129 -40l-42 100q76 50 183 50q112 0 173 -76q44 -55 44 -149v-270z" />
    <glyph glyph-name="aeacute.ss01" horiz-adv-x="835" 
d="M430 720h140l-120 -160h-90zM467 305h200q-3 34 -30.5 59.5t-65.5 25.5q-39 0 -69 -25.5t-35 -59.5zM340 150v50q-26 15 -65 15q-23 0 -44 -5t-38.5 -20t-17.5 -38t19 -37.5t46 -14.5q59 0 100 50zM112 345l-42 100q76 50 183 50q99 0 160 -67q62 67 158 67
q99 0 164 -72.5t65 -175.5q0 -21 -3 -37h-336q5 -51 42 -83t89 -32q70 0 122 56l74 -74q-35 -41 -88.5 -64t-110.5 -23q-79 0 -135 36v-26h-109v39q-14 -19 -48.5 -34t-76.5 -15q-74 0 -124.5 47t-50.5 115q0 77 58 122.5t141 45.5q52 0 96 -21q0 45 -28 65.5t-71 20.5
q-65 0 -129 -40z" />
    <glyph glyph-name="f.ss02" horiz-adv-x="500" 
d="M475 694l-45 -104q-32 15 -64 15q-46 0 -69 -26q-22 -24 -22 -69v-25h190v-110h-190v-375h-130v375h-125v110h125v10q0 111 59 167q61 58 162 58q60 0 109 -26z" />
    <glyph glyph-name="j.ss02" horiz-adv-x="320" 
d="M-75 -223l51 102q28 -14 58 -14q45 0 66 26q15 18 15 59v535h130v-510q0 -104 -43 -155q-59 -70 -157 -70q-72 0 -120 27zM95 657q0 35 25 59t60 24t60 -24t25 -59t-25 -59t-60 -24t-60 24t-25 59z" />
    <glyph glyph-name="r.ss02" horiz-adv-x="450" 
d="M435 470l-40 -113q-32 18 -72 18q-39 0 -71.5 -22t-46.5 -48v-305h-130v485h125v-49q20 25 55.5 42t72.5 17q60 0 107 -25z" />
    <glyph glyph-name="t.ss02" horiz-adv-x="525" 
d="M435 120l46 -104q-62 -26 -122 -26q-91 0 -151 57q-53 50 -53 168v160h-135v110h135v135h130v-135h205v-110h-205v-175q0 -51 17 -69q23 -26 65 -26q34 0 68 15z" />
    <glyph glyph-name="ij.ss02" horiz-adv-x="600" 
d="M205 485v-485h-130v485h130zM55 657q0 35 25 59t60 24t60 -24t25 -59t-25 -59t-60 -24t-60 24t-25 59zM205 -223l51 102q28 -14 58 -14q45 0 66 26q15 18 15 59v535h130v-510q0 -104 -43 -155q-59 -70 -157 -70q-72 0 -120 27zM375 657q0 35 25 59t60 24t60 -24t25 -59
t-25 -59t-60 -24t-60 24t-25 59z" />
    <glyph glyph-name="jcircumflex.ss02" horiz-adv-x="320" 
d="M-75 -223l51 102q28 -14 58 -14q45 0 66 26q15 18 15 59v535h130v-510q0 -104 -43 -155q-59 -70 -157 -70q-72 0 -120 27zM100 720h140l100 -160h-90l-80 90l-80 -90h-90z" />
    <glyph glyph-name="racute.ss02" horiz-adv-x="450" 
d="M260 720h140l-120 -160h-90zM435 470l-40 -113q-32 18 -72 18q-39 0 -71.5 -22t-46.5 -48v-305h-130v485h125v-49q20 25 55.5 42t72.5 17q60 0 107 -25z" />
    <glyph glyph-name="rcommaaccent.ss02" horiz-adv-x="450" 
d="M75 -60h140l-120 -160h-90zM435 470l-40 -113q-32 18 -72 18q-39 0 -71.5 -22t-46.5 -48v-305h-130v485h125v-49q20 25 55.5 42t72.5 17q60 0 107 -25z" />
    <glyph glyph-name="rcaron.ss02" horiz-adv-x="450" 
d="M315 560h-140l-100 160h90l80 -90l80 90h90zM435 470l-40 -113q-32 18 -72 18q-39 0 -71.5 -22t-46.5 -48v-305h-130v485h125v-49q20 25 55.5 42t72.5 17q60 0 107 -25z" />
    <glyph glyph-name="tcommaaccent.ss02" horiz-adv-x="525" 
d="M435 120l46 -104q-62 -26 -122 -26q-91 0 -151 57q-53 50 -53 168v160h-135v110h135v135h130v-135h205v-110h-205v-175q0 -51 17 -69q23 -26 65 -26q34 0 68 15zM260 -60h140l-120 -160h-90z" />
    <glyph glyph-name="tcaron.ss02" horiz-adv-x="525" 
d="M395 700h140l-120 -160h-90zM435 120l46 -104q-62 -26 -122 -26q-91 0 -151 57q-53 50 -53 168v160h-135v110h135v135h130v-135h205v-110h-205v-175q0 -51 17 -69q23 -26 65 -26q34 0 68 15z" />
    <glyph glyph-name="tbar.ss02" horiz-adv-x="525" 
d="M155 305v70h-135v110h135v135h130v-135h205v-110h-205v-70h205v-110h-205q0 -47 17 -64q23 -26 65 -26q34 0 68 15l46 -104q-62 -26 -122 -26q-91 0 -151 57q-50 47 -53 148h-135v110h135z" />
    <glyph glyph-name="uni0237.ss02" horiz-adv-x="320" 
d="M-75 -223l51 102q28 -14 58 -14q45 0 66 26q15 18 15 59v535h130v-510q0 -104 -43 -155q-59 -70 -157 -70q-72 0 -120 27z" />
    <glyph glyph-name="uniFB00.ss02" horiz-adv-x="870" 
d="M515 485v10q0 111 59 167q61 58 162 58q60 0 109 -26l-45 -104q-32 15 -64 15q-46 0 -69 -26q-22 -24 -22 -69v-25h190v-110h-190v-375h-130v375h-240v-375h-130v375h-125v110h125v10q0 111 59 167q61 58 162 58q51 0 94 -19l-38 -107q-29 11 -56 11q-46 0 -69 -26
q-22 -24 -22 -69v-25h240z" />
    <glyph glyph-name="fi.ss02" horiz-adv-x="720" 
d="M460 701l-38 -107q-29 11 -56 11q-46 0 -69 -26q-22 -24 -22 -69v-25h370v-485h-130v375h-240v-375h-130v375h-125v110h125v10q0 111 59 167q61 58 162 58q51 0 94 -19zM495 657q0 35 25 59t60 24t60 -24t25 -59t-25 -59t-60 -24t-60 24t-25 59z" />
    <glyph glyph-name="fl.ss02" horiz-adv-x="720" 
d="M645 710v-710h-130v375h-240v-375h-130v375h-125v110h125v10q0 111 59 167q61 58 162 58q51 0 94 -19l-38 -107q-29 11 -56 11q-46 0 -69 -26q-22 -24 -22 -69v-25h240v225h130z" />
    <glyph glyph-name="uniFB03.ss02" horiz-adv-x="1090" 
d="M515 485v10q0 111 59 167q61 58 162 58q51 0 94 -19l-38 -107q-29 11 -56 11q-46 0 -69 -26q-22 -24 -22 -69v-25h370v-485h-130v375h-240v-375h-130v375h-240v-375h-130v375h-125v110h125v10q0 111 59 167q61 58 162 58q51 0 94 -19l-38 -107q-29 11 -56 11
q-46 0 -69 -26q-22 -24 -22 -69v-25h240zM865 657q0 35 25 59t60 24t60 -24t25 -59t-25 -59t-60 -24t-60 24t-25 59z" />
    <glyph glyph-name="uniFB04.ss02" horiz-adv-x="1090" 
d="M645 485h240v225h130v-710h-130v375h-240v-375h-130v375h-240v-375h-130v375h-125v110h125v10q0 111 59 167q61 58 162 58q51 0 94 -19l-38 -107q-29 11 -56 11q-46 0 -69 -26q-22 -24 -22 -69v-25h240v10q0 111 59 167q61 58 162 58q51 0 94 -19l-38 -107q-29 11 -56 11
q-46 0 -69 -26q-22 -24 -22 -69v-25z" />
    <glyph glyph-name="parenleft.ss03" horiz-adv-x="455" 
d="M260 350q0 -166 71 -310l-108 -50q-83 166 -83 360t83 360l108 -50q-71 -144 -71 -310z" />
    <glyph glyph-name="parenright.ss03" horiz-adv-x="455" 
d="M195 350q0 166 -71 310l108 50q83 -166 83 -360t-83 -360l-108 50q71 144 71 310z" />
    <glyph glyph-name="bracketleft.ss03" horiz-adv-x="455" 
d="M140 0v700h275v-115h-155v-470h155v-115h-275z" />
    <glyph glyph-name="bracketright.ss03" horiz-adv-x="455" 
d="M315 700v-700h-275v115h155v470h-155v115h275z" />
    <glyph glyph-name="braceleft.ss03" horiz-adv-x="455" 
d="M187 350q22 -8 35 -16t25.5 -31t12.5 -57q0 -11 -2.5 -33.5t-2.5 -35.5q0 -62 76 -62h34v-115h-25q-82 0 -129 26q-76 44 -76 138q0 13 2.5 40.5t2.5 37.5q0 68 -90 68v80q90 0 90 68q0 10 -2.5 37.5t-2.5 40.5q0 94 76 138q47 26 129 26h25v-115h-34q-76 0 -76 -62
q0 -13 2.5 -35.5t2.5 -33.5q0 -34 -12.5 -57t-25.5 -31t-35 -16z" />
    <glyph glyph-name="bar.ss03" horiz-adv-x="240" 
d="M180 700v-700h-120v700h120z" />
    <glyph glyph-name="braceright.ss03" horiz-adv-x="455" 
d="M268 350q-22 8 -35 16t-25.5 31t-12.5 57q0 11 2.5 33.5t2.5 35.5q0 62 -76 62h-34v115h25q82 0 129 -26q76 -44 76 -138q0 -13 -2.5 -40.5t-2.5 -37.5q0 -68 90 -68v-80q-90 0 -90 -68q0 -10 2.5 -37.5t2.5 -40.5q0 -94 -76 -138q-47 -26 -129 -26h-25v115h34
q76 0 76 62q0 13 -2.5 35.5t-2.5 33.5q0 34 12.5 57t25.5 31t35 16z" />
    <glyph glyph-name="endash.ss04" horiz-adv-x="1120" 
d="M15 315h1090v-110h-1090v110z" />
    <glyph glyph-name="emdash.ss04" horiz-adv-x="1420" 
d="M15 315h1390v-110h-1390v110z" />
    <glyph glyph-name="endash.case.ss04" horiz-adv-x="1120" 
d="M15 430h1090v-110h-1090v110z" />
    <glyph glyph-name="emdash.case.ss04" horiz-adv-x="1420" 
d="M15 430h1390v-110h-1390v110z" />
    <glyph glyph-name="asterisk.ss05" horiz-adv-x="516" 
d="M476 542l-108 -62l108 -62l-55 -96l-108 63v-125h-110v125l-108 -63l-55 96l107 62l-107 62l55 96l108 -62v124h110v-124l108 62z" />
    <glyph glyph-name="asterisk.ss06" horiz-adv-x="516" 
d="M85 626l88 64l85 -117l85 117l88 -64l-85 -117l138 -45l-34 -104l-137 45v-145h-110v145l-137 -44l-34 103l138 45z" />
    <glyph glyph-name="asterisk.ss07" horiz-adv-x="516" 
d="M320 262l-62 108l-62 -108l-96 55l63 108h-125v110h125l-63 108l96 55l62 -107l62 107l96 -55l-62 -108h124v-110h-124l62 -108z" />
    <glyph glyph-name="asterisk.ss08" horiz-adv-x="516" 
d="M320 262l-62 107l96 55l62 -107zM416 643l-62 -107l-96 55l62 107zM38 425v110h124v-110h-124zM196 262l-96 55l62 107l95 -55zM100 643l96 55l61 -107l-95 -55zM478 425h-123v110h123v-110z" />
    <glyph glyph-name="asterisk.ss09" horiz-adv-x="516" 
d="M313 260h-110v164h110v-164zM38 425v110h164v-110h-164zM478 425h-164v110h164v-110zM313 700v-164h-110v164h110zM115 545l-66 67l77 77l67 -66zM323 623l67 66l77 -77l-66 -67zM49 348l66 67l78 -78l-67 -66zM390 271l-67 66l78 78l66 -67z" />
    <glyph glyph-name="f_f_i.ss02" horiz-adv-x="1090" 
d="M515 485v10q0 111 59 167q61 58 162 58q51 0 94 -19l-38 -107q-29 11 -56 11q-46 0 -69 -26q-22 -24 -22 -69v-25h370v-485h-130v375h-240v-375h-130v375h-240v-375h-130v375h-125v110h125v10q0 111 59 167q61 58 162 58q51 0 94 -19l-38 -107q-29 11 -56 11
q-46 0 -69 -26q-22 -24 -22 -69v-25h240zM865 657q0 35 25 59t60 24t60 -24t25 -59t-25 -59t-60 -24t-60 24t-25 59z" />
    <glyph glyph-name="f_f.ss02" horiz-adv-x="870" 
d="M515 485v10q0 111 59 167q61 58 162 58q60 0 109 -26l-45 -104q-32 15 -64 15q-46 0 -69 -26q-22 -24 -22 -69v-25h190v-110h-190v-375h-130v375h-240v-375h-130v375h-125v110h125v10q0 111 59 167q61 58 162 58q51 0 94 -19l-38 -107q-29 11 -56 11q-46 0 -69 -26
q-22 -24 -22 -69v-25h240z" />
    <glyph glyph-name="f_l.ss02" horiz-adv-x="720" 
d="M645 710v-710h-130v375h-240v-375h-130v375h-125v110h125v10q0 111 59 167q61 58 162 58q51 0 94 -19l-38 -107q-29 11 -56 11q-46 0 -69 -26q-22 -24 -22 -69v-25h240v225h130z" />
    <glyph glyph-name="f_i.ss02" horiz-adv-x="720" 
d="M460 701l-38 -107q-29 11 -56 11q-46 0 -69 -26q-22 -24 -22 -69v-25h370v-485h-130v375h-240v-375h-130v375h-125v110h125v10q0 111 59 167q61 58 162 58q51 0 94 -19zM495 657q0 35 25 59t60 24t60 -24t25 -59t-25 -59t-60 -24t-60 24t-25 59z" />
    <glyph glyph-name="f_f_l.ss02" horiz-adv-x="1090" 
d="M645 485h240v225h130v-710h-130v375h-240v-375h-130v375h-240v-375h-130v375h-125v110h125v10q0 111 59 167q61 58 162 58q51 0 94 -19l-38 -107q-29 11 -56 11q-46 0 -69 -26q-22 -24 -22 -69v-25h240v10q0 111 59 167q61 58 162 58q51 0 94 -19l-38 -107q-29 11 -56 11
q-46 0 -69 -26q-22 -24 -22 -69v-25z" />
    <glyph glyph-name="Ldot.latn_CAT" horiz-adv-x="535" 
d="M80 0v700h135v-580h295v-120h-430zM294 350q0 35 25 59t60 24t60 -24t25 -59t-25 -59t-60 -24t-60 24t-25 59z" />
    <glyph glyph-name="ldot.latn_CAT" horiz-adv-x="340" 
d="M205 710v-710h-130v710h130zM255 350q0 35 25 59t60 24t60 -24t25 -59t-25 -59t-60 -24t-60 24t-25 59z" />
    <glyph glyph-name="uni00AD.case" horiz-adv-x="470" 
d="M70 405h330v-110h-330v110z" />
    <glyph glyph-name="space.frac" horiz-adv-x="54" 
 />
    </font>
</defs>
</svg>
